Loading...

18+ Mostly Sunny 2016 UNCENSORED English Movies HDRip XviD AAC New Source with Sample ☻rDX☻

seeders: 574
leechers: 54
18+ Mostly Sunny 2016 UNCENSORED English Movies HDRip XviD AAC New Source with Sample ☻rDX☻ magnet link

Info Hash: 07987B597FB2079C11897AF5717970339AC7BE31
18+ Mostly Sunny 2016 UNCENSORED English Movies HDRip XviD AAC New Source with Sample ☻rDX☻
  • Downloads 4
  • Added 5 days
  • Quality Good
  • Torrent ID 16594097
  • Note if .torrent file deleted click magnet below
  • Download Magnet
Torrent Info:
• You can easily download 18+ Mostly Sunny 2016 UNCENSORED English Movies HDRip XviD AAC New Source with Sample ☻rDX☻ Torerent to your PC, MAC, Tablet, Mobile or any other devices.
• HD Quality Torrent 18+ Mostly Sunny 2016 UNCENSORED English Movies HDRip XviD AAC New Source with Sample ☻rDX☻
• Your Support Keep WatchTorrentMovie.Us alive.

Torrent Files

18+ Mostly Sunny 2016 UNCENSORED English Movies HDRip XviD AAC New Source with Sample ☻rDX☻ (Size: 705.1 MB)
  18+ Mostly Sunny 2016 UNCENSORED English Movies HDRip XviD AAC New Source with Sample ☻rDX☻ 705.1 MB

Torrent Description



18+ Mostly Sunny 2016 UNCENSORED English Movies HDRip XviD AAC New Source with Sample ☻rDX☻

SCREEN SHOTS:



or

http://postimage.co.nr/2017/1/hospital/1.html

Format : Matroska
Format version : Version 4 / Version 2
File size : 698 MiB
Duration : 1 h 23 min
Overall bit rate mode : Constant
Overall bit rate : 1 172 kb/s
Movie name : 18+ Mostly Sunny 2016 UNCENSORED English Movies HDRip XviD AAC New Source ☻rDX☻

Video
ID : 2
Format : AVC
Format/Info : Advanced Video Codec
Format profile : [email protected]
Format settings, CABAC : Yes
Format settings, ReFrames : 2 frames
Format settings, GOP : M=1, N=12
Codec ID : V_MPEG4/ISO/AVC
Duration : 1 h 23 min
Bit rate mode : Constant
Bit rate : 789 kb/s
Width : 720 pixels
Height : 400 pixels
Display aspect ratio : 16:9
Frame rate mode : Constant
Frame rate : 23.976 (24000/1001) FPS
Color space : YUV
Chroma subsampling : 4:2:0
Bit depth : 8 bits
Scan type : Progressive
Bits/(Pixel*Frame) : 0.114
Stream size : 455 MiB (65%)
Title : ☻rDX☻
Default : Yes
Forced : No

Audio
ID : 1
Format : AC-3
Format/Info : Audio Coding 3
Mode extension : CM (complete main)
Format settings, Endianness : Big
Codec ID : A_AC3
Duration : 1 h 23 min
Bit rate mode : Constant
Bit rate : 384 kb/s
Channel(s) : 6 channels
Channel positions : Front: L C R, Side: L R, LFE
Sampling rate : 48.0 kHz
Frame rate : 31.250 FPS (1536 spf)
Bit depth : 16 bits
Compression mode : Lossy
Stream size : 229 MiB (33%)
Title : ☻rDX☻
Default : Yes
Forced : No



IMDB : http://www.imdb.com/title/tt5935072/




( Tags )





People also Search for: 18+ Mostly Sunny 2016 UNCENSORED English Movies HDRip XviD AAC New Source with S

  • • 1080p 18+ Mostly Sunny 2016 UNCENSORED English Movies HDRip XviD AAC New Source with S Torrent
  • • 720p 18+ Mostly Sunny 2016 UNCENSORED English Movies HDRip XviD AAC New Source with S DVDRip
  • • HD 18+ Mostly Sunny 2016 UNCENSORED English Movies HDRip XviD AAC New Source with S
  • • Dvix/Xvid 18+ Mostly Sunny 2016 UNCENSORED English Movies HDRip XviD AAC New Source with S
  • • Blu-ray 18+ Mostly Sunny 2016 UNCENSORED English Movies HDRip XviD AAC New Source with S

Recently Added Torrents

torrent name size age seed leech
143.9 MB 8 minutes 764 281
164.1 MB 8 minutes 636 441
123.5 MB 8 minutes 752 163
112.1 MB 8 minutes 368 339
62.8 MB 8 minutes 190 21