Loading...
Loading...
Loading...
Loading...
Loading...
Loading...
Loading...
Loading...

18+ The Snare 2017 UNCENSORED English Movies HDRip XviD AAC New Source with Sample ☻rDX☻

seeders: 598
leechers: 314
18+ The Snare 2017 UNCENSORED English Movies HDRip XviD AAC New Source with Sample ☻rDX☻ magnet link

Info Hash: 8891155EDA408AEE30D985D8EE109D5CAFB51C8B
Loading...
18+ The Snare 2017 UNCENSORED English Movies HDRip XviD AAC New Source with Sample ☻rDX☻
  • Downloads 7
  • Added 2 months
  • Quality Good
  • Torrent ID 16577580
  • Note if .torrent file deleted click magnet below
  • Download Magnet
Torrent Info:
• You can easily download 18+ The Snare 2017 UNCENSORED English Movies HDRip XviD AAC New Source with Sample ☻rDX☻ Torerent to your PC, MAC, Tablet, Mobile or any other devices.
• HD Quality Torrent 18+ The Snare 2017 UNCENSORED English Movies HDRip XviD AAC New Source with Sample ☻rDX☻
• Your Support Keep WatchTorrentMovie.Us alive.

Torrent Files

18+ The Snare 2017 UNCENSORED English Movies HDRip XviD AAC New Source with Sample ☻rDX☻ (Size: 706.0 MB)
  18+ The Snare 2017 UNCENSORED English Movies HDRip XviD AAC New Source with Sample ☻rDX☻ 706.0 MB

Torrent Description



18+ The Snare 2017 UNCENSORED English Movies HDRip XviD AAC New Source with Sample ☻rDX☻

SCREEN SHOTS:



or

http://postimage.co.nr/2017/1/bike/1.html

Format : Matroska
Format version : Version 4 / Version 2
File size : 698 MiB
Duration : 1 h 32 min
Overall bit rate mode : Constant
Overall bit rate : 1 055 kb/s
Movie name : 18+ The Snare 2017 UNCENSORED English Movies HDRip XviD AAC New Source ☻rDX☻

Video
ID : 2
Format : AVC
Format/Info : Advanced Video Codec
Format profile : [email protected]
Format settings, CABAC : Yes
Format settings, ReFrames : 2 frames
Format settings, GOP : M=1, N=12
Codec ID : V_MPEG4/ISO/AVC
Duration : 1 h 32 min
Bit rate mode : Constant
Bit rate : 672 kb/s
Width : 720 pixels
Height : 304 pixels
Display aspect ratio : 2.35:1
Frame rate mode : Constant
Frame rate : 25.000 FPS
Color space : YUV
Chroma subsampling : 4:2:0
Bit depth : 8 bits
Scan type : Progressive
Bits/(Pixel*Frame) : 0.123
Stream size : 430 MiB (62%)
Title : ☻rDX☻
Default : Yes
Forced : No

Audio
ID : 1
Format : AC-3
Format/Info : Audio Coding 3
Mode extension : CM (complete main)
Format settings, Endianness : Big
Codec ID : A_AC3
Duration : 1 h 32 min
Bit rate mode : Constant
Bit rate : 384 kb/s
Channel(s) : 6 channels
Channel positions : Front: L C R, Side: L R, LFE
Sampling rate : 48.0 kHz
Frame rate : 31.250 FPS (1536 spf)
Bit depth : 16 bits
Compression mode : Lossy
Stream size : 254 MiB (36%)
Title : ☻rDX☻
Default : Yes
Forced : No



IMDB : http://www.imdb.com/title/tt2935390/




( Tags )





People also Search for: 18+ The Snare 2017 UNCENSORED English Movies HDRip XviD AAC New Source with Samp

  • • 1080p 18+ The Snare 2017 UNCENSORED English Movies HDRip XviD AAC New Source with Samp Torrent
  • • 720p 18+ The Snare 2017 UNCENSORED English Movies HDRip XviD AAC New Source with Samp DVDRip
  • • HD 18+ The Snare 2017 UNCENSORED English Movies HDRip XviD AAC New Source with Samp
  • • Dvix/Xvid 18+ The Snare 2017 UNCENSORED English Movies HDRip XviD AAC New Source with Samp
  • • Blu-ray 18+ The Snare 2017 UNCENSORED English Movies HDRip XviD AAC New Source with Samp

Recently Added Torrents

torrent name size age seed leech
312.98 MB 17 minutes 584 378
235.77 MB 17 minutes 511 334
333.54 MB 17 minutes 70 116
431.75 MB 17 minutes 576 74
12.03 GB 17 minutes 264 300