Loading...

A Visitor From The Living 1999 720p BluRay x264-GHOULS[PRiME]

seeders: 663
leechers: 96
A Visitor From The Living 1999 720p BluRay x264-GHOULS[PRiME] magnet link

Info Hash: 1160D81E9ED8CDEA456BEC6A5C28EE222773B09B
A Visitor From The Living 1999 720p BluRay x264-GHOULS[PRiME]
  • Downloads 5
  • Added 1 week
  • Quality Good
  • Torrent ID 16594792
  • Note if .torrent file deleted click magnet below
  • Download Magnet
Torrent Info:
• You can easily download A Visitor From The Living 1999 720p BluRay x264-GHOULS[PRiME] Torerent to your PC, MAC, Tablet, Mobile or any other devices.
• HD Quality Torrent A Visitor From The Living 1999 720p BluRay x264-GHOULS[PRiME]
• Your Support Keep WatchTorrentMovie.Us alive.

Torrent Files

A Visitor From The Living 1999 720p BluRay x264-GHOULS[PRiME] (Size: 2.7 GB)
  A Visitor From The Living 1999 720p BluRay x264-GHOULS[PRiME] 2.7 GB

Torrent Description




A.Visitor.From.The.Living.1999.720p.BluRay.x264-GHOULS[PRiME]

ImDb: http://www.imdb.com/title/tt0170734



Complete name : a.visitor.from.the.living.1999.720p.bluray.x264-ghouls[PRiME].mkv
Format : Matroska
Format version : Version 4 / Version 2
File size : 2.65 GiB
Duration : 1 h 8 min
Overall bit rate : 5 564 kb/s
Encoded date : UTC 2017-01-11 18:59:10
Writing application : mkvmerge v9.7.1 ('Pandemonium') 32bit
Writing library : libebml v1.3.4 + libmatroska v1.4.5

Video
ID : 3
Format : AVC
Format/Info : Advanced Video Codec
Format profile : [email protected]
Format settings, CABAC : Yes
Format settings, ReFrames : 5 frames
Codec ID : V_MPEG4/ISO/AVC
Duration : 1 h 8 min
Bit rate : 4 922 kb/s
Width : 960 pixels
Height : 720 pixels
Display aspect ratio : 4:3
Frame rate mode : Constant
Frame rate : 23.976 (24000/1001) FPS
Color space : YUV
Chroma subsampling : 4:2:0
Bit depth : 8 bits
Scan type : Progressive
Bits/(Pixel*Frame) : 0.297
Stream size : 2.29 GiB (87%)
Writing library : x264 core 148 r2744 b97ae06
Encoding settings : cabac=1 / ref=5 / deblock=1:-3:-3 / analyse=0x3:0x133 / me=umh / subme=8 / psy=1 / psy_rd=1.00:0.00 / mixed_ref=1 / me_range=16 / chroma_me=1 / trellis=1 / 8x8dct=1 / cqm=0 / deadzone=21,11 / fast_pskip=0 / chroma_qp_offset=-2 / threads=6 / lookahead_threads=1 / sliced_threads=0 / nr=0 / decimate=1 / interlaced=0 / bluray_compat=0 / constrained_intra=0 / bframes=3 / b_pyramid=2 / b_adapt=1 / b_bias=0 / direct=3 / weightb=1 / open_gop=0 / weightp=2 / keyint=240 / keyint_min=23 / scenecut=40 / intra_refresh=0 / rc_lookahead=50 / rc=2pass / mbtree=1 / bitrate=4922 / ratetol=1.0 / qcomp=0.60 / qpmin=0 / qpmax=69 / qpstep=4 / cplxblur=20.0 / qblur=0.5 / vbv_maxrate=62500 / vbv_bufsize=78125 / nal_hrd=none / filler=0 / ip_ratio=1.40 / aq=1:1.00
Default : Yes
Forced : No

Audio
ID : 2
Format : AC-3
Format/Info : Audio Coding 3
Mode extension : CM (complete main)
Format settings, Endianness : Big
Codec ID : A_AC3
Duration : 1 h 8 min
Bit rate mode : Constant
Bit rate : 640 kb/s
Channel(s) : 1 channel
Channel positions : Front: C
Sampling rate : 48.0 kHz
Frame rate : 31.250 FPS (1536 spf)
Compression mode : Lossy
Stream size : 312 MiB (12%)
Language : French
Default : Yes
Forced : No

Text
ID : 1
Format : UTF-8
Codec ID : S_TEXT/UTF8
Codec ID/Info : UTF-8 Plain Text
Language : English
Default : Yes
Forced : No

Menu
00:00:00.000 : en:00:00:00.000
00:05:59.776 : en:00:05:59.776
00:18:32.236 : en:00:18:32.236
00:33:57.160 : en:00:33:57.160
00:50:33.739 : en:00:50:33.739
01:02:23.823 : en:01:02:23.823




Click Image To View Full Size


Click To View Screenshot
Click To View Screenshot
Click To View Screenshot




( Tags )





People also Search for: A Visitor From The Living 1999 720p BluRay x264-GHOULS[PRiME]

  • • 1080p A Visitor From The Living 1999 720p BluRay x264-GHOULS[PRiME] Torrent
  • • 720p A Visitor From The Living 1999 720p BluRay x264-GHOULS[PRiME] DVDRip
  • • HD A Visitor From The Living 1999 720p BluRay x264-GHOULS[PRiME]
  • • Dvix/Xvid A Visitor From The Living 1999 720p BluRay x264-GHOULS[PRiME]
  • • Blu-ray A Visitor From The Living 1999 720p BluRay x264-GHOULS[PRiME]

Recently Added Torrents

torrent name size age seed leech
132.9 MB 5 minutes 301 484
1.3 GB 5 minutes 273 297
552.5 MB 5 minutes 78 84
156.2 MB 5 minutes 189 293
1.8 GB 5 minutes 28 79