Loading...
Loading...
Loading...
Loading...
Loading...
Loading...
Loading...
Loading...

Bargain Hunt Series S45E28 - Kedleston 19

seeders: 322
leechers: 258
Bargain Hunt Series S45E28 - Kedleston 19 magnet link

Info Hash: A25BF7BAB95F4E880E2C81F3191015D6C0157E42
Loading...
Bargain Hunt Series S45E28 - Kedleston 19
  • Downloads 9
  • Added 2 months
  • Quality Good
  • Torrent ID 16593263
  • Note if .torrent file deleted click magnet below
  • Download Magnet
Torrent Info:
• You can easily download Bargain Hunt Series S45E28 - Kedleston 19 Torerent to your PC, MAC, Tablet, Mobile or any other devices.
• HD Quality Torrent Bargain Hunt Series S45E28 - Kedleston 19
• Your Support Keep WatchTorrentMovie.Us alive.

Torrent Files

Bargain Hunt Series S45E28 - Kedleston 19 (Size: 748.6 MB)
  Bargain Hunt Series S45E28 - Kedleston 19 748.6 MB

Torrent Description



Bargain Hunt Series S45E28 - Kedleston 19

Today's location is in the grounds of Kedleston Hall in Derbyshire. Presenter Eric Knowles leads the fray and the experts are Danny Sebastian and Jonathan Pratt. Two teams of married couples take on each other to buy three items that will hopefully make a profit at auction. One team can't get away from ceramics and the other find an unusual American clock.

(with soft subtitles)

First broadcast: 9 January 2017
Duration: 45 minutes



Media info:-

General
Format : MPEG-4
Format profile : Base Media
Codec ID : isom (isom/iso2/avc1/mp41)
File size : 748 MiB
Duration : 43mn 33s
Overall bit rate mode : Variable
Overall bit rate : 2 400 Kbps
Writing application : Lavf57.25.100

Video
ID : 1
Format : AVC
Format/Info : Advanced Video Codec
Format profile : [email protected]
Format settings, CABAC : Yes
Format settings, ReFrames : 2 frames
Codec ID : avc1
Codec ID/Info : Advanced Video Coding
Duration : 43mn 33s
Bit rate mode : Variable
Bit rate : 2 301 Kbps
Maximum bit rate : 3 500 Kbps
Width : 1 280 pixels
Height : 720 pixels
Display aspect ratio : 16:9
Frame rate mode : Constant
Frame rate : 25.000 fps
Color space : YUV
Chroma subsampling : 4:2:0
Bit depth : 8 bits
Scan type : Progressive
Bits/(Pixel*Frame) : 0.100
Stream size : 717 MiB (96%)

Audio
ID : 2
Format : AAC
Format/Info : Advanced Audio Codec
Format profile : LC
Codec ID : 40
Duration : 43mn 33s
Bit rate mode : Constant
Bit rate : 93.5 Kbps
Channel(s) : 2 channels
Channel positions : Front: L R
Sampling rate : 48.0 KHz
Frame rate : 46.875 fps (1024 spf)
Compression mode : Lossy
Stream size : 29.1 MiB (4%)




( Tags )





People also Search for: Bargain Hunt Series S45E28 - Kedleston 19

  • • 1080p Bargain Hunt Series S45E28 - Kedleston 19 Torrent
  • • 720p Bargain Hunt Series S45E28 - Kedleston 19 DVDRip
  • • HD Bargain Hunt Series S45E28 - Kedleston 19
  • • Dvix/Xvid Bargain Hunt Series S45E28 - Kedleston 19
  • • Blu-ray Bargain Hunt Series S45E28 - Kedleston 19

Recently Added Torrents

torrent name size age seed leech
2.58 GB 15 minutes 320 284
793.31 MB 15 minutes 230 137
719.85 MB 15 minutes 262 55
912.0 MB 15 minutes 159 160
1.8 GB 15 minutes 71 185