Loading...

Christine.2016.HDRip.XviD.AC3-iFT[PRiME]

seeders: 600
leechers: 9
Christine.2016.HDRip.XviD.AC3-iFT[PRiME] magnet link

Info Hash: 6A41B6E429ACBF6DC6595D3FA1CA7A0ED8A39A75
Christine.2016.HDRip.XviD.AC3-iFT[PRiME]
  • Downloads 17
  • Added 1 week
  • Quality Good
  • Torrent ID 16593253
  • Note if .torrent file deleted click magnet below
  • Download Magnet
Torrent Info:
• You can easily download Christine.2016.HDRip.XviD.AC3-iFT[PRiME] Torerent to your PC, MAC, Tablet, Mobile or any other devices.
• HD Quality Torrent Christine.2016.HDRip.XviD.AC3-iFT[PRiME]
• Your Support Keep WatchTorrentMovie.Us alive.

Torrent Files

Christine.2016.HDRip.XviD.AC3-iFT[PRiME] (Size: 1.91 GB)
  Christine.2016.HDRip.XviD.AC3-iFT[PRiME] 1.91 GB

Torrent Description



Christine.2016.HDRip.XviD.AC3-iFT

ImDb: http://www.imdb.com/title/tt4666726



Complete name                            : Christine.2016.HDRip.XviD.AC3-iFT.avi
Format                                   : AVI
Format/Info                              : Audio Video Interleave
Format profile                           : OpenDML
Format settings                          : rec
File size                                : 1.90 GiB
Duration                                 : 1 h 59 min
Overall bit rate                         : 2 285 kb/s
Writing application                      : AVI-Mux GUI 1.17.8.3, Feb 16 201019:42:50

Video
ID                                       : 0
Format                                   : MPEG-4 Visual
Format profile                           : Advanced
Format settings, BVOP                    : 2
Format settings, QPel                    : No
Format settings, GMC                     : No warppoints
Format settings, Matrix                  : Default (H.263)
Muxing mode                              : Packed bitstream
Codec ID                                 : XVID
Codec ID/Hint                            : XviD
Duration                                 : 1 h 59 min
Bit rate                                 : 1 896 kb/s
Width                                    : 720 pixels
Height                                   : 400 pixels
Display aspect ratio                     : 16:9
Frame rate                               : 23.976 (23976/1000) FPS
Color space                              : YUV
Chroma subsampling                       : 4:2:0
Bit depth                                : 8 bits
Scan type                                : Progressive
Compression mode                         : Lossy
Bits/(Pixel*Frame)                       : 0.275
Stream size                              : 1.58 GiB (83%)
Writing library                          : XviD 73

Audio
ID                                       : 1
Format                                   : AC-3
Format/Info                              : Audio Coding 3
Mode extension                           : CM (complete main)
Format settings, Endianness              : Big
Codec ID                                 : 2000
Duration                                 : 1 h 59 min
Bit rate mode                            : Constant
Bit rate                                 : 384 kb/s
Channel(s)                               : 6 channels
Channel positions                        : Front: L C R, Side: L R, LFE
Sampling rate                            : 48.0 kHz
Frame rate                               : 31.250 FPS (1536 spf)
Compression mode                         : Lossy
Stream size                              : 327 MiB (17%)
Alignment                                : Aligned on interleaves
Interleave, duration                     : 64  ms (1.53 video frames)
Interleave, preload duration             : 192  ms
Title                                    : Christine.track_2




Click Image To View Full Size


Click To View Screenshot
Click To View Screenshot
Click To View Screenshot


( Tags )





People also Search for: Christine.2016.HDRip.XviD.AC3-iFT[PRiME]

  • • 1080p Christine.2016.HDRip.XviD.AC3-iFT[PRiME] Torrent
  • • 720p Christine.2016.HDRip.XviD.AC3-iFT[PRiME] DVDRip
  • • HD Christine.2016.HDRip.XviD.AC3-iFT[PRiME]
  • • Dvix/Xvid Christine.2016.HDRip.XviD.AC3-iFT[PRiME]
  • • Blu-ray Christine.2016.HDRip.XviD.AC3-iFT[PRiME]

Recently Added Torrents

torrent name size age seed leech
403.82 MB 8 minutes 406 48
358.62 MB 8 minutes 522 169
342.22 MB 8 minutes 546 371
1.01 GB 8 minutes 250 373
218.03 MB 8 minutes 1 100