Loading...

Criminal.Minds.S12E10.720p.HDTV.x264-AVS[PRiME]

seeders: 302
leechers: 153
Criminal.Minds.S12E10.720p.HDTV.x264-AVS[PRiME] magnet link

Info Hash: DFCB84EF68BC2434AF8BA58665437C16E9D4443F
Criminal.Minds.S12E10.720p.HDTV.x264-AVS[PRiME]
  • Downloads 6
  • Added 5 days
  • Quality Good
  • Torrent ID 16594075
  • Note if .torrent file deleted click magnet below
  • Download Magnet
Torrent Info:
• You can easily download Criminal.Minds.S12E10.720p.HDTV.x264-AVS[PRiME] Torerent to your PC, MAC, Tablet, Mobile or any other devices.
• HD Quality Torrent Criminal.Minds.S12E10.720p.HDTV.x264-AVS[PRiME]
• Your Support Keep WatchTorrentMovie.Us alive.

Torrent Files

Criminal.Minds.S12E10.720p.HDTV.x264-AVS[PRiME] (Size: 923.01 MB)
  Criminal.Minds.S12E10.720p.HDTV.x264-AVS[PRiME] 923.01 MB

Torrent Description



Criminal.Minds.S12E10.720p.HDTV.x264-AVS



Complete name                            : Criminal.Minds.S12E10.720p.HDTV.x264-AVS.mkv
Format                                   : Matroska
Format version                           : Version 4 / Version 2
File size                                : 923 MiB
Duration                                 : 40 min 19 s
Overall bit rate                         : 3 200 kb/s
Encoded date                             : UTC 2017-01-12 02:12:35
Writing application                      : FastLE v2.5.0 - AVS
Writing library                          : libx264 + libebml + libmatroska + libfastrar

Video
ID                                       : 1
Format                                   : AVC
Format/Info                              : Advanced Video Codec
Format profile                           :
Format settings, CABAC                   : Yes
Format settings, ReFrames                : 5 frames
Codec ID                                 : V_MPEG4/ISO/AVC
Duration                                 : 40 min 19 s
Bit rate                                 : 2 752 kb/s
Width                                    : 1 280 pixels
Height                                   : 720 pixels
Display aspect ratio                     : 16:9
Frame rate mode                          : Constant
Frame rate                               : 23.976 (24000/1001) FPS
Color space                              : YUV
Chroma subsampling                       : 4:2:0
Bit depth                                : 8 bits
Scan type                                : Progressive
Bits/(Pixel*Frame)                       : 0.125
Stream size                              : 794 MiB (86%)
Writing library                          : x264 core 148 r2721 72d53ab
Encoding settings                        : cabac=1 / ref=5 / deblock=1:0:0 / analyse=0x3:0x113 / me=hex / subme=8 / psy=1 / psy_rd=1.00:0.00 / mixed_ref=1 / me_range=16 / chroma_me=1 / trellis=2 / 8x8dct=1 / cqm=0 / deadzone=21,11 / fast_pskip=1 / chroma_qp_offset=-2 / threads=18 / lookahead_threads=3 / sliced_threads=0 / nr=0 / decimate=1 / interlaced=0 / bluray_compat=0 / constrained_intra=0 / bframes=3 / b_pyramid=2 / b_adapt=1 / b_bias=0 / direct=3 / weightb=1 / open_gop=0 / weightp=2 / keyint=250 / keyint_min=23 / scenecut=40 / intra_refresh=0 / rc_lookahead=50 / rc=crf / mbtree=1 / crf=18.0 / qcomp=0.60 / qpmin=0 / qpmax=69 / qpstep=4 / ip_ratio=1.40 / aq=1:1.00
Default                                  : Yes
Forced                                   : No
Color range                              : Limited
Matrix coefficients                      : BT.709

Audio
ID                                       : 2
Format                                   : AC-3
Format/Info                              : Audio Coding 3
Mode extension                           : CM (complete main)
Format settings, Endianness              : Big
Codec ID                                 : A_AC3
Duration                                 : 40 min 19 s
Bit rate mode                            : Constant
Bit rate                                 : 384 kb/s
Channel(s)                               : 6 channels
Channel positions                        : Front: L C R, Side: L R, LFE
Sampling rate                            : 48.0 kHz
Frame rate                               : 31.250 FPS (1536 spf)
Compression mode                         : Lossy
Stream size                              : 111 MiB (12%)
Default                                  : Yes
Forced                                   : No




Click Image To View Full Size


Click To View Screenshot
Click To View Screenshot
Click To View Screenshot


( Tags )





People also Search for: Criminal.Minds.S12E10.720p.HDTV.x264-AVS[PRiME]

  • • 1080p Criminal.Minds.S12E10.720p.HDTV.x264-AVS[PRiME] Torrent
  • • 720p Criminal.Minds.S12E10.720p.HDTV.x264-AVS[PRiME] DVDRip
  • • HD Criminal.Minds.S12E10.720p.HDTV.x264-AVS[PRiME]
  • • Dvix/Xvid Criminal.Minds.S12E10.720p.HDTV.x264-AVS[PRiME]
  • • Blu-ray Criminal.Minds.S12E10.720p.HDTV.x264-AVS[PRiME]

Recently Added Torrents

torrent name size age seed leech
287.58 MB 13 minutes 597 358
314.49 MB 13 minutes 209 28
1.22 GB 13 minutes 329 109
939.79 MB 13 minutes 103 168
1.34 GB 13 minutes 46 143