Loading...

Death Race 2050 2017 English Movies DVDRip XviD AAC New Source with Sample ☻rDX☻

seeders: 36
leechers: 184
Death Race 2050 2017 English Movies DVDRip XviD AAC New Source with Sample ☻rDX☻ magnet link

Info Hash: FEB806B830CAA169937CB8B80CD509826D054D78
Death Race 2050 2017 English Movies DVDRip XviD AAC New Source with Sample ☻rDX☻
  • Downloads 1
  • Added 1 week
  • Quality Good
  • Torrent ID 16578620
  • Note if .torrent file deleted click magnet below
  • Download Magnet
Torrent Info:
• You can easily download Death Race 2050 2017 English Movies DVDRip XviD AAC New Source with Sample ☻rDX☻ Torerent to your PC, MAC, Tablet, Mobile or any other devices.
• HD Quality Torrent Death Race 2050 2017 English Movies DVDRip XviD AAC New Source with Sample ☻rDX☻
• Your Support Keep WatchTorrentMovie.Us alive.

Torrent Files

Death Race 2050 2017 English Movies DVDRip XviD AAC New Source with Sample ☻rDX☻ (Size: 705.2 MB)
  Death Race 2050 2017 English Movies DVDRip XviD AAC New Source with Sample ☻rDX☻ 705.2 MB

Torrent Description



Death Race 2050 2017 English Movies DVDRip XviD AAC New Source with Sample ☻rDX☻

SCREEN SHOTS:



or

http://postimage.co.nr/2017/1/investment/1.html

Format : Matroska
Format version : Version 4 / Version 2
File size : 698 MiB
Duration : 1 h 32 min
Overall bit rate mode : Constant
Overall bit rate : 1 053 kb/s
Movie name : Death Race 2050 2017 English Movies DVDRip XviD AAC New Source ☻rDX☻

Video
ID : 2
Format : AVC
Format/Info : Advanced Video Codec
Format profile : [email protected]
Format settings, CABAC : Yes
Format settings, ReFrames : 2 frames
Format settings, GOP : M=1, N=12
Codec ID : V_MPEG4/ISO/AVC
Duration : 1 h 32 min
Bit rate mode : Constant
Bit rate : 606 kb/s
Width : 720 pixels
Height : 400 pixels
Display aspect ratio : 16:9
Frame rate mode : Constant
Frame rate : 23.976 (24000/1001) FPS
Color space : YUV
Chroma subsampling : 4:2:0
Bit depth : 8 bits
Scan type : Progressive
Bits/(Pixel*Frame) : 0.088
Stream size : 387 MiB (55%)
Title : ☻rDX☻
Default : Yes
Forced : No

Audio
ID : 1
Format : AC-3
Format/Info : Audio Coding 3
Mode extension : CM (complete main)
Format settings, Endianness : Big
Codec ID : A_AC3
Duration : 1 h 32 min
Bit rate mode : Constant
Bit rate : 448 kb/s
Channel(s) : 6 channels
Channel positions : Front: L C R, Side: L R, LFE
Sampling rate : 48.0 kHz
Frame rate : 31.250 FPS (1536 spf)
Bit depth : 16 bits
Compression mode : Lossy
Stream size : 297 MiB (43%)
Title : ☻rDX☻
Default : Yes
Forced : No



IMDB : http://www.imdb.com/title/tt5493706/




( Tags )





People also Search for: Death Race 2050 2017 English Movies DVDRip XviD AAC New Source with Sample ☻rD

  • • 1080p Death Race 2050 2017 English Movies DVDRip XviD AAC New Source with Sample ☻rD Torrent
  • • 720p Death Race 2050 2017 English Movies DVDRip XviD AAC New Source with Sample ☻rD DVDRip
  • • HD Death Race 2050 2017 English Movies DVDRip XviD AAC New Source with Sample ☻rD
  • • Dvix/Xvid Death Race 2050 2017 English Movies DVDRip XviD AAC New Source with Sample ☻rD
  • • Blu-ray Death Race 2050 2017 English Movies DVDRip XviD AAC New Source with Sample ☻rD

Recently Added Torrents

torrent name size age seed leech
143.9 MB 23 minutes 385 129
164.1 MB 23 minutes 352 500
123.5 MB 23 minutes 657 344
112.1 MB 23 minutes 209 216
62.8 MB 23 minutes 324 375