Loading...

Duck.Dynasty.S11E09.720p.HDTV.x264-BRISKET[PRiME]

seeders: 619
leechers: 168
Duck.Dynasty.S11E09.720p.HDTV.x264-BRISKET[PRiME] magnet link

Info Hash: E9B39DEDBD5AAD36C8EFC14FDB54A7B682B32401
Duck.Dynasty.S11E09.720p.HDTV.x264-BRISKET[PRiME]
  • Downloads 8
  • Added 5 days
  • Quality Good
  • Torrent ID 16594170
  • Note if .torrent file deleted click magnet below
  • Download Magnet
Torrent Info:
• You can easily download Duck.Dynasty.S11E09.720p.HDTV.x264-BRISKET[PRiME] Torerent to your PC, MAC, Tablet, Mobile or any other devices.
• HD Quality Torrent Duck.Dynasty.S11E09.720p.HDTV.x264-BRISKET[PRiME]
• Your Support Keep WatchTorrentMovie.Us alive.

Torrent Files

Duck.Dynasty.S11E09.720p.HDTV.x264-BRISKET[PRiME] (Size: 485.50 MB)
  Duck.Dynasty.S11E09.720p.HDTV.x264-BRISKET[PRiME] 485.50 MB

Torrent Description



Duck.Dynasty.S11E09.720p.HDTV.x264-BRISKET



Complete name                            : duck.dynasty.s11e09.720p.hdtv.x264-brisket.mkv
Format                                   : Matroska
Format version                           : Version 4 / Version 2
File size                                : 486 MiB
Duration                                 : 21 min 9 s
Overall bit rate                         : 3 208 kb/s
Movie name                               : Duck Dynasty 1/2HR (6.5 NT) - Wh
Encoded date                             : UTC 2017-01-12 03:56:44
Writing application                      : mkvmerge v9.2.0 ('Photograph') 64bit
Writing library                          : libebml v1.3.3 + libmatroska v1.4.4

Video
ID                                       : 1
Format                                   : AVC
Format/Info                              : Advanced Video Codec
Format profile                           :
Format settings, CABAC                   : Yes
Format settings, ReFrames                : 5 frames
Codec ID                                 : V_MPEG4/ISO/AVC
Duration                                 : 21 min 9 s
Bit rate                                 : 2 823 kb/s
Width                                    : 1 280 pixels
Height                                   : 720 pixels
Display aspect ratio                     : 16:9
Frame rate mode                          : Constant
Frame rate                               : 23.976 (24000/1001) FPS
Color space                              : YUV
Chroma subsampling                       : 4:2:0
Bit depth                                : 8 bits
Scan type                                : Progressive
Bits/(Pixel*Frame)                       : 0.128
Stream size                              : 427 MiB (88%)
Writing library                          : x264 core 148 r2744 b97ae06
Encoding settings                        : cabac=1 / ref=5 / deblock=1:-2:-2 / analyse=0x3:0x113 / me=hex / subme=8 / psy=1 / psy_rd=0.95:0.00 / mixed_ref=1 / me_range=16 / chroma_me=1 / trellis=2 / 8x8dct=1 / cqm=0 / deadzone=21,11 / fast_pskip=1 / chroma_qp_offset=-2 / threads=18 / lookahead_threads=3 / sliced_threads=0 / nr=0 / decimate=1 / interlaced=0 / bluray_compat=0 / constrained_intra=0 / bframes=3 / b_pyramid=2 / b_adapt=1 / b_bias=0 / direct=3 / weightb=1 / open_gop=0 / weightp=2 / keyint=250 / keyint_min=30 / scenecut=40 / intra_refresh=0 / rc_lookahead=250 / rc=crf / mbtree=1 / crf=21.0 / qcomp=0.60 / qpmin=0 / qpmax=69 / qpstep=4 / ip_ratio=1.40 / aq=1:0.60
Default                                  : Yes
Forced                                   : No

Audio
ID                                       : 2
Format                                   : AC-3
Format/Info                              : Audio Coding 3
Mode extension                           : CM (complete main)
Format settings, Endianness              : Big
Codec ID                                 : A_AC3
Duration                                 : 21 min 9 s
Bit rate mode                            : Constant
Bit rate                                 : 384 kb/s
Channel(s)                               : 6 channels
Channel positions                        : Front: L C R, Side: L R, LFE
Sampling rate                            : 48.0 kHz
Frame rate                               : 31.250 FPS (1536 spf)
Compression mode                         : Lossy
Stream size                              : 58.1 MiB (12%)
Language                                 : English
Default                                  : No
Forced                                   : No




Click Image To View Full Size


Click To View Screenshot
Click To View Screenshot
Click To View Screenshot


( Tags )





People also Search for: Duck.Dynasty.S11E09.720p.HDTV.x264-BRISKET[PRiME]

  • • 1080p Duck.Dynasty.S11E09.720p.HDTV.x264-BRISKET[PRiME] Torrent
  • • 720p Duck.Dynasty.S11E09.720p.HDTV.x264-BRISKET[PRiME] DVDRip
  • • HD Duck.Dynasty.S11E09.720p.HDTV.x264-BRISKET[PRiME]
  • • Dvix/Xvid Duck.Dynasty.S11E09.720p.HDTV.x264-BRISKET[PRiME]
  • • Blu-ray Duck.Dynasty.S11E09.720p.HDTV.x264-BRISKET[PRiME]

Recently Added Torrents

torrent name size age seed leech
287.58 MB 19 minutes 366 149
314.49 MB 19 minutes 252 355
1.22 GB 19 minutes 659 420
939.79 MB 19 minutes 189 49
1.34 GB 19 minutes 468 154