Loading...

La.La.Land.2016.HDCAM.x264-GunGravE[PRiME]

seeders: 686
leechers: 337
La.La.Land.2016.HDCAM.x264-GunGravE[PRiME] magnet link

Info Hash: 9F273B9EAB2486677AE9BF5A8A77CA92BFFD5310
La.La.Land.2016.HDCAM.x264-GunGravE[PRiME]
  • Downloads 25
  • Added 1 week
  • Quality Good
  • Torrent ID 16593257
  • Note if .torrent file deleted click magnet below
  • Download Magnet
Torrent Info:
• You can easily download La.La.Land.2016.HDCAM.x264-GunGravE[PRiME] Torerent to your PC, MAC, Tablet, Mobile or any other devices.
• HD Quality Torrent La.La.Land.2016.HDCAM.x264-GunGravE[PRiME]
• Your Support Keep WatchTorrentMovie.Us alive.

Torrent Files

La.La.Land.2016.HDCAM.x264-GunGravE[PRiME] (Size: 489.87 MB)
  La.La.Land.2016.HDCAM.x264-GunGravE[PRiME] 489.87 MB

Torrent Description



La.La.Land.2016.HDCAM.x264-GunGravE

ImDb: http://www.imdb.com/title/tt3783958



Complete name                            : La.La.Land.2016.HDCAM.x264-GunGravE.mkv
Format                                   : Matroska
Format version                           : Version 4 / Version 2
File size                                : 490 MiB
Duration                                 : 1 h 59 min
Overall bit rate                         : 571 kb/s
Encoded date                             : UTC 2017-01-11 18:10:27
Writing application                      : mkvmerge v9.6.0 ('Slave To Your Mind') 64bit
Writing library                          : libebml v1.3.4 + libmatroska v1.4.5

Video
ID                                       : 1
Format                                   : AVC
Format/Info                              : Advanced Video Codec
Format profile                           :
Format settings, CABAC                   : Yes
Format settings, ReFrames                : 4 frames
Codec ID                                 : V_MPEG4/ISO/AVC
Duration                                 : 1 h 59 min
Bit rate                                 : 475 kb/s
Width                                    : 640 pixels
Height                                   : 260 pixels
Display aspect ratio                     : 2.462
Frame rate mode                          : Constant
Frame rate                               : 29.970 (30000/1001) FPS
Color space                              : YUV
Chroma subsampling                       : 4:2:0
Bit depth                                : 8 bits
Scan type                                : Progressive
Bits/(Pixel*Frame)                       : 0.095
Stream size                              : 405 MiB (83%)
Writing library                          : x264 core 148 r2694bm 3b70645
Encoding settings                        : cabac=1 / ref=1 / deblock=1:-1:-1 / analyse=0x3:0x113 / me=hex / subme=2 / psy=1 / psy_rd=1.00:0.15 / mixed_ref=0 / me_range=16 / chroma_me=1 / trellis=0 / 8x8dct=1 / cqm=0 / deadzone=21,11 / fast_pskip=1 / chroma_qp_offset=0 / threads=6 / lookahead_threads=2 / sliced_threads=0 / nr=0 / decimate=1 / interlaced=0 / bluray_compat=0 / constrained_intra=0 / bframes=3 / b_pyramid=2 / b_adapt=1 / b_bias=0 / direct=1 / weightb=1 / open_gop=0 / weightp=1 / keyint=250 / keyint_min=25 / scenecut=40 / intra_refresh=0 / rc_lookahead=10 / rc=abr / mbtree=1 / bitrate=475 / ratetol=1.0 / qcomp=0.60 / qpmin=0 / qpmax=69 / qpstep=4 / ip_ratio=1.40 / aq=1:1.00
Language                                 : English
Default                                  : Yes
Forced                                   : No

Audio
ID                                       : 2
Format                                   : AAC
Format/Info                              : Advanced Audio Codec
Format profile                           : LC
Codec ID                                 : A_AAC
Duration                                 : 1 h 59 min
Bit rate                                 : 96.0 kb/s
Channel(s)                               : 2 channels
Channel positions                        : Front: L R
Sampling rate                            : 48.0 kHz
Frame rate                               : 46.875 FPS (1024 spf)
Compression mode                         : Lossy
Stream size                              : 82.4 MiB (17%)
Default                                  : Yes
Forced                                   : No




Click Image To View Full Size


Click To View Screenshot
Click To View Screenshot
Click To View Screenshot


( Tags )





People also Search for: La.La.Land.2016.HDCAM.x264-GunGravE[PRiME]

  • • 1080p La.La.Land.2016.HDCAM.x264-GunGravE[PRiME] Torrent
  • • 720p La.La.Land.2016.HDCAM.x264-GunGravE[PRiME] DVDRip
  • • HD La.La.Land.2016.HDCAM.x264-GunGravE[PRiME]
  • • Dvix/Xvid La.La.Land.2016.HDCAM.x264-GunGravE[PRiME]
  • • Blu-ray La.La.Land.2016.HDCAM.x264-GunGravE[PRiME]

Recently Added Torrents

torrent name size age seed leech
970.73 MB 24 minutes 597 30
1.17 GB 24 minutes 262 480
970.73 MB 24 minutes 541 61
7.34 MB 24 minutes 129 70
77.58 MB 24 minutes 223 376