Loading...

Le Rapport Karski 2010 720p BluRay x264-GHOULS[PRiME]

seeders: 191
leechers: 201
Le Rapport Karski 2010 720p BluRay x264-GHOULS[PRiME] magnet link

Info Hash: F3381D27E22A5960F39180AE2A630A8A33F880D4
Le Rapport Karski 2010 720p BluRay x264-GHOULS[PRiME]
  • Downloads 5
  • Added 1 week
  • Quality Good
  • Torrent ID 16594782
  • Note if .torrent file deleted click magnet below
  • Download Magnet
Torrent Info:
• You can easily download Le Rapport Karski 2010 720p BluRay x264-GHOULS[PRiME] Torerent to your PC, MAC, Tablet, Mobile or any other devices.
• HD Quality Torrent Le Rapport Karski 2010 720p BluRay x264-GHOULS[PRiME]
• Your Support Keep WatchTorrentMovie.Us alive.

Torrent Files

Le Rapport Karski 2010 720p BluRay x264-GHOULS[PRiME] (Size: 2.2 GB)
  Le Rapport Karski 2010 720p BluRay x264-GHOULS[PRiME] 2.2 GB

Torrent Description




Le.Rapport.Karski.2010.720p.BluRay.x264-GHOULS[PRiME]

ImDb: http://www.imdb.com/title/tt1621180



Complete name : le.rapport.karski.2010.720p.bluray.x264-ghouls[PRiME].mkv
Format : Matroska
Format version : Version 4 / Version 2
File size : 2.19 GiB
Duration : 48 min 42 s
Overall bit rate : 6 423 kb/s
Encoded date : UTC 2017-01-11 17:43:34
Writing application : mkvmerge v9.7.1 ('Pandemonium') 32bit
Writing library : libebml v1.3.4 + libmatroska v1.4.5

Video
ID : 3
Format : AVC
Format/Info : Advanced Video Codec
Format profile : [email protected]
Format settings, CABAC : Yes
Format settings, ReFrames : 5 frames
Codec ID : V_MPEG4/ISO/AVC
Duration : 48 min 42 s
Bit rate : 5 780 kb/s
Width : 960 pixels
Height : 720 pixels
Display aspect ratio : 4:3
Frame rate mode : Constant
Frame rate : 29.970 (30000/1001) FPS
Color space : YUV
Chroma subsampling : 4:2:0
Bit depth : 8 bits
Scan type : Progressive
Bits/(Pixel*Frame) : 0.279
Stream size : 1.92 GiB (88%)
Writing library : x264 core 148 r2744 b97ae06
Encoding settings : cabac=1 / ref=5 / deblock=1:-3:-3 / analyse=0x3:0x133 / me=umh / subme=8 / psy=1 / psy_rd=1.00:0.00 / mixed_ref=1 / me_range=16 / chroma_me=1 / trellis=1 / 8x8dct=1 / cqm=0 / deadzone=21,11 / fast_pskip=0 / chroma_qp_offset=-2 / threads=6 / lookahead_threads=1 / sliced_threads=0 / nr=0 / decimate=1 / interlaced=0 / bluray_compat=0 / constrained_intra=0 / bframes=3 / b_pyramid=2 / b_adapt=1 / b_bias=0 / direct=3 / weightb=1 / open_gop=0 / weightp=2 / keyint=300 / keyint_min=29 / scenecut=40 / intra_refresh=0 / rc_lookahead=50 / rc=2pass / mbtree=1 / bitrate=5780 / ratetol=1.0 / qcomp=0.60 / qpmin=0 / qpmax=69 / qpstep=4 / cplxblur=20.0 / qblur=0.5 / vbv_maxrate=62500 / vbv_bufsize=78125 / nal_hrd=none / filler=0 / ip_ratio=1.40 / aq=1:1.00
Default : Yes
Forced : No

Audio
ID : 1
Format : AC-3
Format/Info : Audio Coding 3
Mode extension : CM (complete main)
Format settings, Endianness : Big
Codec ID : A_AC3
Duration : 48 min 42 s
Bit rate mode : Constant
Bit rate : 640 kb/s
Channel(s) : 1 channel
Channel positions : Front: C
Sampling rate : 48.0 kHz
Frame rate : 31.250 FPS (1536 spf)
Compression mode : Lossy
Stream size : 223 MiB (10%)
Language : French
Default : Yes
Forced : No

Text
ID : 2
Format : UTF-8
Codec ID : S_TEXT/UTF8
Codec ID/Info : UTF-8 Plain Text
Language : English
Default : Yes
Forced : No

Menu
00:00:00.000 : en:00:00:00.000
00:05:16.716 : en:00:05:16.716
00:10:35.869 : en:00:10:35.869
00:16:03.296 : en:00:16:03.296
00:25:02.334 : en:00:25:02.334
00:29:41.647 : en:00:29:41.647




Click Image To View Full Size


Click To View Screenshot
Click To View Screenshot
Click To View Screenshot




( Tags )





People also Search for: Le Rapport Karski 2010 720p BluRay x264-GHOULS[PRiME]

  • • 1080p Le Rapport Karski 2010 720p BluRay x264-GHOULS[PRiME] Torrent
  • • 720p Le Rapport Karski 2010 720p BluRay x264-GHOULS[PRiME] DVDRip
  • • HD Le Rapport Karski 2010 720p BluRay x264-GHOULS[PRiME]
  • • Dvix/Xvid Le Rapport Karski 2010 720p BluRay x264-GHOULS[PRiME]
  • • Blu-ray Le Rapport Karski 2010 720p BluRay x264-GHOULS[PRiME]

Recently Added Torrents

torrent name size age seed leech
970.73 MB 15 minutes 180 475
1.17 GB 15 minutes 203 474
970.73 MB 15 minutes 740 243
7.34 MB 15 minutes 507 7
77.58 MB 15 minutes 293 313