Loading...

Lost In The Pacific 2016 English Movies HDRip XviD ESubs AAC New Source with Sample ☻rDX☻

seeders: 735
leechers: 174
Lost In The Pacific 2016 English Movies HDRip XviD ESubs AAC New Source with Sample ☻rDX☻ magnet link

Info Hash: 57B93C6190CDF366233F4E7741581965755469E2
Lost In The Pacific 2016 English Movies HDRip XviD ESubs AAC New Source with Sample ☻rDX☻
  • Downloads 4
  • Added 1 week
  • Quality Good
  • Torrent ID 16585016
  • Note if .torrent file deleted click magnet below
  • Download Magnet
Torrent Info:
• You can easily download Lost In The Pacific 2016 English Movies HDRip XviD ESubs AAC New Source with Sample ☻rDX☻ Torerent to your PC, MAC, Tablet, Mobile or any other devices.
• HD Quality Torrent Lost In The Pacific 2016 English Movies HDRip XviD ESubs AAC New Source with Sample ☻rDX☻
• Your Support Keep WatchTorrentMovie.Us alive.

Torrent Files

Lost In The Pacific 2016 English Movies HDRip XviD ESubs AAC New Source with Sample ☻rDX☻ (Size: 705.0 MB)
  Lost In The Pacific 2016 English Movies HDRip XviD ESubs AAC New Source with Sample ☻rDX☻ 705.0 MB

Torrent Description



Lost In The Pacific 2016 English Movies HDRip XviD ESubs AAC New Source with Sample ☻rDX☻

SCREEN SHOTS:



or

http://postimage.co.nr/2017/1/cheap/1.html

Format : Matroska
Format version : Version 4 / Version 2
File size : 698 MiB
Duration : 1 h 29 min
Overall bit rate mode : Constant
Overall bit rate : 1 085 kb/s
Movie name : Lost In The Pacific 2016 English Movies HDRip XviD ESubs AAC New Source ☻rDX☻

Video
ID : 2
Format : AVC
Format/Info : Advanced Video Codec
Format profile : [email protected]
Format settings, CABAC : Yes
Format settings, ReFrames : 2 frames
Format settings, GOP : M=1, N=12
Codec ID : V_MPEG4/ISO/AVC
Duration : 1 h 29 min
Bit rate mode : Constant
Bit rate : 702 kb/s
Width : 720 pixels
Height : 384 pixels
Display aspect ratio : 1.85:1
Frame rate mode : Constant
Frame rate : 23.976 (24000/1001) FPS
Color space : YUV
Chroma subsampling : 4:2:0
Bit depth : 8 bits
Scan type : Progressive
Bits/(Pixel*Frame) : 0.106
Stream size : 437 MiB (63%)
Title : ☻rDX☻
Default : Yes
Forced : No

Audio
ID : 1
Format : AC-3
Format/Info : Audio Coding 3
Mode extension : CM (complete main)
Format settings, Endianness : Big
Codec ID : A_AC3
Duration : 1 h 29 min
Bit rate mode : Constant
Bit rate : 384 kb/s
Channel(s) : 6 channels
Channel positions : Front: L C R, Side: L R, LFE
Sampling rate : 48.0 kHz
Frame rate : 31.250 FPS (1536 spf)
Bit depth : 16 bits
Compression mode : Lossy
Stream size : 247 MiB (35%)
Title : ☻rDX☻
Default : Yes
Forced : No



IMDB : http://www.imdb.com/title/tt4363250/




( Tags )





People also Search for: Lost In The Pacific 2016 English Movies HDRip XviD ESubs AAC New Source with Sam

  • • 1080p Lost In The Pacific 2016 English Movies HDRip XviD ESubs AAC New Source with Sam Torrent
  • • 720p Lost In The Pacific 2016 English Movies HDRip XviD ESubs AAC New Source with Sam DVDRip
  • • HD Lost In The Pacific 2016 English Movies HDRip XviD ESubs AAC New Source with Sam
  • • Dvix/Xvid Lost In The Pacific 2016 English Movies HDRip XviD ESubs AAC New Source with Sam
  • • Blu-ray Lost In The Pacific 2016 English Movies HDRip XviD ESubs AAC New Source with Sam

Recently Added Torrents

torrent name size age seed leech
143.9 MB 11 minutes 4 472
164.1 MB 11 minutes 791 381
123.5 MB 11 minutes 510 391
112.1 MB 11 minutes 593 322
62.8 MB 11 minutes 597 17