Loading...

Man.Seeking.Woman.S03E02.720p.HDTV.x264-AVS[PRiME]

seeders: 593
leechers: 177
Man.Seeking.Woman.S03E02.720p.HDTV.x264-AVS[PRiME] magnet link

Info Hash: 9007C0849F0002E653D882EF21BDCF736F6CC221
Man.Seeking.Woman.S03E02.720p.HDTV.x264-AVS[PRiME]
  • Downloads 11
  • Added 5 days
  • Quality Good
  • Torrent ID 16594176
  • Note if .torrent file deleted click magnet below
  • Download Magnet
Torrent Info:
• You can easily download Man.Seeking.Woman.S03E02.720p.HDTV.x264-AVS[PRiME] Torerent to your PC, MAC, Tablet, Mobile or any other devices.
• HD Quality Torrent Man.Seeking.Woman.S03E02.720p.HDTV.x264-AVS[PRiME]
• Your Support Keep WatchTorrentMovie.Us alive.

Torrent Files

Man.Seeking.Woman.S03E02.720p.HDTV.x264-AVS[PRiME] (Size: 533.57 MB)
  Man.Seeking.Woman.S03E02.720p.HDTV.x264-AVS[PRiME] 533.57 MB

Torrent Description



Man.Seeking.Woman.S03E02.720p.HDTV.x264-AVS



Complete name                            : Man.Seeking.Woman.S03E02.720p.HDTV.x264-AVS.mkv
Format                                   : Matroska
Format version                           : Version 4 / Version 2
File size                                : 534 MiB
Duration                                 : 17 min 26 s
Overall bit rate                         : 4 278 kb/s
Encoded date                             : UTC 2017-01-12 03:34:10
Writing application                      : FastLE v2.5.0 - AVS
Writing library                          : libx264 + libebml + libmatroska + libfastrar

Video
ID                                       : 1
Format                                   : AVC
Format/Info                              : Advanced Video Codec
Format profile                           :
Format settings, CABAC                   : Yes
Format settings, ReFrames                : 5 frames
Codec ID                                 : V_MPEG4/ISO/AVC
Duration                                 : 17 min 26 s
Bit rate                                 : 3 808 kb/s
Width                                    : 1 280 pixels
Height                                   : 720 pixels
Display aspect ratio                     : 16:9
Frame rate mode                          : Constant
Frame rate                               : 23.976 (24000/1001) FPS
Color space                              : YUV
Chroma subsampling                       : 4:2:0
Bit depth                                : 8 bits
Scan type                                : Progressive
Bits/(Pixel*Frame)                       : 0.172
Stream size                              : 475 MiB (89%)
Writing library                          : x264 core 148 r2721 72d53ab
Encoding settings                        : cabac=1 / ref=5 / deblock=1:0:0 / analyse=0x3:0x113 / me=hex / subme=8 / psy=1 / psy_rd=1.00:0.00 / mixed_ref=1 / me_range=16 / chroma_me=1 / trellis=2 / 8x8dct=1 / cqm=0 / deadzone=21,11 / fast_pskip=1 / chroma_qp_offset=-2 / threads=22 / lookahead_threads=3 / sliced_threads=0 / nr=0 / decimate=1 / interlaced=0 / bluray_compat=0 / constrained_intra=0 / bframes=3 / b_pyramid=2 / b_adapt=1 / b_bias=0 / direct=3 / weightb=1 / open_gop=0 / weightp=2 / keyint=250 / keyint_min=23 / scenecut=40 / intra_refresh=0 / rc_lookahead=50 / rc=crf / mbtree=1 / crf=18.0 / qcomp=0.60 / qpmin=0 / qpmax=69 / qpstep=4 / ip_ratio=1.40 / aq=1:1.00
Default                                  : Yes
Forced                                   : No
Color range                              : Limited
Matrix coefficients                      : BT.709

Audio
ID                                       : 2
Format                                   : AC-3
Format/Info                              : Audio Coding 3
Mode extension                           : CM (complete main)
Format settings, Endianness              : Big
Codec ID                                 : A_AC3
Duration                                 : 17 min 26 s
Bit rate mode                            : Constant
Bit rate                                 : 384 kb/s
Channel(s)                               : 6 channels
Channel positions                        : Front: L C R, Side: L R, LFE
Sampling rate                            : 48.0 kHz
Frame rate                               : 31.250 FPS (1536 spf)
Compression mode                         : Lossy
Stream size                              : 47.9 MiB (9%)
Default                                  : Yes
Forced                                   : No




Click Image To View Full Size


Click To View Screenshot
Click To View Screenshot
Click To View Screenshot


( Tags )





People also Search for: Man.Seeking.Woman.S03E02.720p.HDTV.x264-AVS[PRiME]

  • • 1080p Man.Seeking.Woman.S03E02.720p.HDTV.x264-AVS[PRiME] Torrent
  • • 720p Man.Seeking.Woman.S03E02.720p.HDTV.x264-AVS[PRiME] DVDRip
  • • HD Man.Seeking.Woman.S03E02.720p.HDTV.x264-AVS[PRiME]
  • • Dvix/Xvid Man.Seeking.Woman.S03E02.720p.HDTV.x264-AVS[PRiME]
  • • Blu-ray Man.Seeking.Woman.S03E02.720p.HDTV.x264-AVS[PRiME]

Recently Added Torrents

torrent name size age seed leech
287.58 MB 15 minutes 628 454
314.49 MB 15 minutes 87 386
1.22 GB 15 minutes 519 14
939.79 MB 15 minutes 21 98
1.34 GB 15 minutes 609 480