Loading...

Modern.Family.S08E11.720p.HDTV.x264-AVS[PRiME]

seeders: 705
leechers: 115
Modern.Family.S08E11.720p.HDTV.x264-AVS[PRiME] magnet link

Info Hash: 4B2DDE52F8BC1A1A849F8BFBE778EE6A4E2971E7
Modern.Family.S08E11.720p.HDTV.x264-AVS[PRiME]
  • Downloads 4
  • Added 5 days
  • Quality Good
  • Torrent ID 16594001
  • Note if .torrent file deleted click magnet below
  • Download Magnet
Torrent Info:
• You can easily download Modern.Family.S08E11.720p.HDTV.x264-AVS[PRiME] Torerent to your PC, MAC, Tablet, Mobile or any other devices.
• HD Quality Torrent Modern.Family.S08E11.720p.HDTV.x264-AVS[PRiME]
• Your Support Keep WatchTorrentMovie.Us alive.

Torrent Files

Modern.Family.S08E11.720p.HDTV.x264-AVS[PRiME] (Size: 592.16 MB)
  Modern.Family.S08E11.720p.HDTV.x264-AVS[PRiME] 592.16 MB

Torrent Description



Modern.Family.S08E11.720p.HDTV.x264-AVS



Complete name                            : Modern.Family.S08E11.720p.HDTV.x264-AVS.mkv
Format                                   : Matroska
Format version                           : Version 4 / Version 2
File size                                : 592 MiB
Duration                                 : 21 min 26 s
Overall bit rate                         : 3 862 kb/s
Encoded date                             : UTC 2017-01-12 02:06:56
Writing application                      : FastLE v2.5.0 - AVS
Writing library                          : libx264 + libebml + libmatroska + libfastrar

Video
ID                                       : 1
Format                                   : AVC
Format/Info                              : Advanced Video Codec
Format profile                           :
Format settings, CABAC                   : Yes
Format settings, ReFrames                : 5 frames
Codec ID                                 : V_MPEG4/ISO/AVC
Duration                                 : 21 min 26 s
Bit rate                                 : 3 401 kb/s
Width                                    : 1 280 pixels
Height                                   : 718 pixels
Display aspect ratio                     : 16:9
Frame rate mode                          : Constant
Frame rate                               : 23.976 (24000/1001) FPS
Color space                              : YUV
Chroma subsampling                       : 4:2:0
Bit depth                                : 8 bits
Scan type                                : Progressive
Bits/(Pixel*Frame)                       : 0.154
Stream size                              : 521 MiB (88%)
Writing library                          : x264 core 148 r2744 b97ae06
Encoding settings                        : cabac=1 / ref=5 / deblock=1:0:0 / analyse=0x3:0x113 / me=hex / subme=8 / psy=1 / psy_rd=1.00:0.00 / mixed_ref=1 / me_range=16 / chroma_me=1 / trellis=2 / 8x8dct=1 / cqm=0 / deadzone=21,11 / fast_pskip=1 / chroma_qp_offset=-2 / threads=22 / lookahead_threads=3 / sliced_threads=0 / nr=0 / decimate=1 / interlaced=0 / bluray_compat=0 / constrained_intra=0 / bframes=3 / b_pyramid=2 / b_adapt=1 / b_bias=0 / direct=3 / weightb=1 / open_gop=0 / weightp=2 / keyint=250 / keyint_min=23 / scenecut=40 / intra_refresh=0 / rc_lookahead=50 / rc=crf / mbtree=1 / crf=18.0 / qcomp=0.60 / qpmin=0 / qpmax=69 / qpstep=4 / ip_ratio=1.40 / aq=1:1.00
Default                                  : Yes
Forced                                   : No
Color range                              : Limited
Matrix coefficients                      : BT.709

Audio
ID                                       : 2
Format                                   : AC-3
Format/Info                              : Audio Coding 3
Mode extension                           : CM (complete main)
Format settings, Endianness              : Big
Codec ID                                 : A_AC3
Duration                                 : 21 min 26 s
Bit rate mode                            : Constant
Bit rate                                 : 384 kb/s
Channel(s)                               : 6 channels
Channel positions                        : Front: L C R, Side: L R, LFE
Sampling rate                            : 48.0 kHz
Frame rate                               : 31.250 FPS (1536 spf)
Compression mode                         : Lossy
Stream size                              : 58.9 MiB (10%)
Default                                  : Yes
Forced                                   : No




Click Image To View Full Size


Click To View Screenshot
Click To View Screenshot
Click To View Screenshot


( Tags )





People also Search for: Modern.Family.S08E11.720p.HDTV.x264-AVS[PRiME]

  • • 1080p Modern.Family.S08E11.720p.HDTV.x264-AVS[PRiME] Torrent
  • • 720p Modern.Family.S08E11.720p.HDTV.x264-AVS[PRiME] DVDRip
  • • HD Modern.Family.S08E11.720p.HDTV.x264-AVS[PRiME]
  • • Dvix/Xvid Modern.Family.S08E11.720p.HDTV.x264-AVS[PRiME]
  • • Blu-ray Modern.Family.S08E11.720p.HDTV.x264-AVS[PRiME]

Recently Added Torrents

torrent name size age seed leech
287.58 MB 12 minutes 351 213
314.49 MB 12 minutes 511 99
1.22 GB 12 minutes 16 34
939.79 MB 12 minutes 713 24
1.34 GB 12 minutes 685 372