Loading...

Moonlight 2016 English Movies HD Cam XviD AAC Clean Audio New Source with Sample ☻rDX☻

seeders: 308
leechers: 389
Moonlight 2016 English Movies HD Cam XviD AAC Clean Audio New Source with Sample ☻rDX☻ magnet link

Info Hash: 23CA530BFBBF187CCDF59D22C93860349A7C0449
Moonlight 2016 English Movies HD Cam XviD AAC Clean Audio New Source with Sample ☻rDX☻
  • Downloads 2
  • Added 1 week
  • Quality Good
  • Torrent ID 16583977
  • Note if .torrent file deleted click magnet below
  • Download Magnet
Torrent Info:
• You can easily download Moonlight 2016 English Movies HD Cam XviD AAC Clean Audio New Source with Sample ☻rDX☻ Torerent to your PC, MAC, Tablet, Mobile or any other devices.
• HD Quality Torrent Moonlight 2016 English Movies HD Cam XviD AAC Clean Audio New Source with Sample ☻rDX☻
• Your Support Keep WatchTorrentMovie.Us alive.

Torrent Files

Moonlight 2016 English Movies HD Cam XviD AAC Clean Audio New Source with Sample ☻rDX☻ (Size: 705.7 MB)
  Moonlight 2016 English Movies HD Cam XviD AAC Clean Audio New Source with Sample ☻rDX☻ 705.7 MB

Torrent Description



Moonlight 2016 English Movies HD Cam XviD AAC Clean Audio New Source with Sample ☻rDX☻

SCREEN SHOTS:



or

http://postimage.co.nr/2017/1/buy/1.html

Format : Matroska
Format version : Version 4 / Version 2
File size : 698 MiB
Duration : 1 h 46 min
Overall bit rate mode : Constant
Overall bit rate : 919 kb/s
Movie name : Moonlight 2016 English Movies HD Cam XviD AAC Clean Audio New Source ☻rDX☻

Video
ID : 2
Format : AVC
Format/Info : Advanced Video Codec
Format profile : [email protected]
Format settings, CABAC : Yes
Format settings, ReFrames : 2 frames
Format settings, GOP : M=1, N=12
Codec ID : V_MPEG4/ISO/AVC
Duration : 1 h 46 min
Bit rate mode : Constant
Bit rate : 472 kb/s
Width : 720 pixels
Height : 392 pixels
Display aspect ratio : 1.85:1
Frame rate mode : Constant
Frame rate : 29.970 (29970/1000) FPS
Color space : YUV
Chroma subsampling : 4:2:0
Bit depth : 8 bits
Scan type : Progressive
Bits/(Pixel*Frame) : 0.056
Stream size : 344 MiB (49%)
Title : ☻rDX☻
Default : Yes
Forced : No

Audio
ID : 1
Format : AC-3
Format/Info : Audio Coding 3
Mode extension : CM (complete main)
Format settings, Endianness : Big
Codec ID : A_AC3
Duration : 1 h 46 min
Bit rate mode : Constant
Bit rate : 448 kb/s
Channel(s) : 6 channels
Channel positions : Front: L C R, Side: L R, LFE
Sampling rate : 48.0 kHz
Frame rate : 31.250 FPS (1536 spf)
Bit depth : 16 bits
Compression mode : Lossy
Stream size : 340 MiB (49%)
Title : ☻rDX☻
Default : Yes
Forced : No



IMDB : http://www.imdb.com/title/tt4975722/




( Tags )





People also Search for: Moonlight 2016 English Movies HD Cam XviD AAC Clean Audio New Source with Sample

  • • 1080p Moonlight 2016 English Movies HD Cam XviD AAC Clean Audio New Source with Sample Torrent
  • • 720p Moonlight 2016 English Movies HD Cam XviD AAC Clean Audio New Source with Sample DVDRip
  • • HD Moonlight 2016 English Movies HD Cam XviD AAC Clean Audio New Source with Sample
  • • Dvix/Xvid Moonlight 2016 English Movies HD Cam XviD AAC Clean Audio New Source with Sample
  • • Blu-ray Moonlight 2016 English Movies HD Cam XviD AAC Clean Audio New Source with Sample

Recently Added Torrents

torrent name size age seed leech
143.9 MB 10 minutes 761 256
164.1 MB 10 minutes 213 33
123.5 MB 10 minutes 611 20
112.1 MB 10 minutes 563 111
62.8 MB 10 minutes 74 4