Loading...
Loading...
Loading...
Loading...
Loading...
Loading...
Loading...
Loading...

Passengers 2016 English Movies HD TS XviD AAC New Source with Sample ☻rDX☻

seeders: 109
leechers: 25
Passengers 2016 English Movies HD TS XviD AAC New Source with Sample ☻rDX☻ magnet link

Info Hash: 8E746A9425BB579EDC9E1DE0FE0F18E263394E0B
Loading...
Passengers 2016 English Movies HD TS XviD AAC New Source with Sample ☻rDX☻
  • Downloads 9
  • Added 2 months
  • Quality Good
  • Torrent ID 16573420
  • Note if .torrent file deleted click magnet below
  • Download Magnet
Torrent Info:
• You can easily download Passengers 2016 English Movies HD TS XviD AAC New Source with Sample ☻rDX☻ Torerent to your PC, MAC, Tablet, Mobile or any other devices.
• HD Quality Torrent Passengers 2016 English Movies HD TS XviD AAC New Source with Sample ☻rDX☻
• Your Support Keep WatchTorrentMovie.Us alive.

Torrent Files

Passengers 2016 English Movies HD TS XviD AAC New Source with Sample ☻rDX☻ (Size: 705.3 MB)
  Passengers 2016 English Movies HD TS XviD AAC New Source with Sample ☻rDX☻ 705.3 MB

Torrent Description



Passengers 2016 English Movies HD TS XviD AAC New Source with Sample ☻rDX☻

SCREEN SHOTS:



or

http://postimage.co.nr/2016/12/ofline/1.html

Format : Matroska
Format version : Version 4 / Version 2
File size : 698 MiB
Duration : 1 h 45 min
Overall bit rate mode : Constant
Overall bit rate : 924 kb/s
Movie name : Passengers 2016 English Movies HD TS XviD AAC New Source ☻rDX☻

Video
ID : 2
Format : AVC
Format/Info : Advanced Video Codec
Format profile : [email protected]
Format settings, CABAC : Yes
Format settings, ReFrames : 2 frames
Format settings, GOP : M=1, N=12
Codec ID : V_MPEG4/ISO/AVC
Duration : 1 h 45 min
Bit rate mode : Constant
Bit rate : 669 kb/s
Width : 720 pixels
Height : 320 pixels
Display aspect ratio : 2.25:1
Frame rate mode : Constant
Frame rate : 29.000 FPS
Color space : YUV
Chroma subsampling : 4:2:0
Bit depth : 8 bits
Scan type : Progressive
Bits/(Pixel*Frame) : 0.100
Stream size : 491 MiB (70%)
Title : ☻rDX☻
Default : Yes
Forced : No

Audio
ID : 1
Format : AC-3
Format/Info : Audio Coding 3
Mode extension : CM (complete main)
Format settings, Endianness : Big
Codec ID : A_AC3
Duration : 1 h 45 min
Bit rate mode : Constant
Bit rate : 256 kb/s
Channel(s) : 2 channels
Channel positions : Front: L R
Sampling rate : 44.1 kHz
Frame rate : 28.711 FPS (1536 spf)
Bit depth : 16 bits
Compression mode : Lossy
Delay relative to video : 200 ms
Stream size : 193 MiB (28%)
Title : ☻rDX☻
Default : Yes
Forced : No



IMDB : http://www.imdb.com/title/tt1355644/




( Tags )





People also Search for: Passengers 2016 English Movies HD TS XviD AAC New Source with Sample ☻rDX☻

  • • 1080p Passengers 2016 English Movies HD TS XviD AAC New Source with Sample ☻rDX☻ Torrent
  • • 720p Passengers 2016 English Movies HD TS XviD AAC New Source with Sample ☻rDX☻ DVDRip
  • • HD Passengers 2016 English Movies HD TS XviD AAC New Source with Sample ☻rDX☻
  • • Dvix/Xvid Passengers 2016 English Movies HD TS XviD AAC New Source with Sample ☻rDX☻
  • • Blu-ray Passengers 2016 English Movies HD TS XviD AAC New Source with Sample ☻rDX☻

Recently Added Torrents

torrent name size age seed leech
312.98 MB 22 minutes 378 427
235.77 MB 22 minutes 364 437
333.54 MB 22 minutes 622 343
431.75 MB 22 minutes 56 176
12.03 GB 22 minutes 336 88