Loading...
Loading...

Shock 2016 English Movies HDRip XviD AAC New Source with Sample ☻rDX☻

seeders: 646
leechers: 150
Shock 2016 English Movies HDRip XviD AAC New Source with Sample ☻rDX☻ magnet link

Info Hash: 4A7A33DF9EB6C4ACAEEE2ABA099078AC82B5A840
Shock 2016 English Movies HDRip XviD AAC New Source with Sample ☻rDX☻
  • Downloads 10
  • Added 1 month
  • Quality Good
  • Torrent ID 16585019
  • Note if .torrent file deleted click magnet below
  • Download Magnet
Torrent Info:
• You can easily download Shock 2016 English Movies HDRip XviD AAC New Source with Sample ☻rDX☻ Torerent to your PC, MAC, Tablet, Mobile or any other devices.
• HD Quality Torrent Shock 2016 English Movies HDRip XviD AAC New Source with Sample ☻rDX☻
• Your Support Keep WatchTorrentMovie.Us alive.

Torrent Files

Shock 2016 English Movies HDRip XviD AAC New Source with Sample ☻rDX☻ (Size: 705.4 MB)
  Shock 2016 English Movies HDRip XviD AAC New Source with Sample ☻rDX☻ 705.4 MB

Torrent Description



Shock 2016 English Movies HDRip XviD AAC New Source with Sample ☻rDX☻

SCREEN SHOTS:



or

http://postimage.co.nr/2017/1/discount/1.html

Format : Matroska
Format version : Version 4 / Version 2
File size : 698 MiB
Duration : 1 h 9 min
Overall bit rate mode : Constant
Overall bit rate : 1 396 kb/s
Movie name : Shock 2016 English Movies HDRip XviD AAC New Source ☻rDX☻

Video
ID : 2
Format : AVC
Format/Info : Advanced Video Codec
Format profile : [email protected]
Format settings, CABAC : Yes
Format settings, ReFrames : 2 frames
Format settings, GOP : M=1, N=12
Codec ID : V_MPEG4/ISO/AVC
Duration : 1 h 9 min
Bit rate mode : Constant
Bit rate : 1 205 kb/s
Width : 720 pixels
Height : 304 pixels
Display aspect ratio : 2.35:1
Frame rate mode : Constant
Frame rate : 23.976 FPS
Color space : YUV
Chroma subsampling : 4:2:0
Bit depth : 8 bits
Scan type : Progressive
Bits/(Pixel*Frame) : 0.230
Stream size : 588 MiB (84%)
Title : ☻rDX☻
Default : Yes
Forced : No

Audio
ID : 1
Format : AC-3
Format/Info : Audio Coding 3
Mode extension : CM (complete main)
Format settings, Endianness : Big
Codec ID : A_AC3
Duration : 1 h 9 min
Bit rate mode : Constant
Bit rate : 192 kb/s
Channel(s) : 2 channels
Channel positions : Front: L R
Sampling rate : 48.0 kHz
Frame rate : 31.250 FPS (1536 spf)
Bit depth : 16 bits
Compression mode : Lossy
Stream size : 96.1 MiB (14%)
Title : ☻rDX☻
Default : Yes
Forced : No



IMDB : http://www.imdb.com/title/tt5310410/




( Tags )





People also Search for: Shock 2016 English Movies HDRip XviD AAC New Source with Sample ☻rDX☻

  • • 1080p Shock 2016 English Movies HDRip XviD AAC New Source with Sample ☻rDX☻ Torrent
  • • 720p Shock 2016 English Movies HDRip XviD AAC New Source with Sample ☻rDX☻ DVDRip
  • • HD Shock 2016 English Movies HDRip XviD AAC New Source with Sample ☻rDX☻
  • • Dvix/Xvid Shock 2016 English Movies HDRip XviD AAC New Source with Sample ☻rDX☻
  • • Blu-ray Shock 2016 English Movies HDRip XviD AAC New Source with Sample ☻rDX☻

Recently Added Torrents

torrent name size age seed leech
452.8 MB 4 minutes 730 405
452.8 MB 4 minutes 463 64
4.40 GB 4 minutes 195 306
5.5 GB 4 minutes 687 301
4.41 GB 4 minutes 348 180