Loading...

Sobibor 2001 1080p BluRay x264-GHOULS[PRiME]

seeders: 532
leechers: 201
Sobibor 2001 1080p BluRay x264-GHOULS[PRiME] magnet link

Info Hash: 591A3294F3982F4D1C0CFE4ACE51D7B54697EB20
Sobibor 2001 1080p BluRay x264-GHOULS[PRiME]
  • Downloads 2
  • Added 1 week
  • Quality Good
  • Torrent ID 16594872
  • Note if .torrent file deleted click magnet below
  • Download Magnet
Torrent Info:
• You can easily download Sobibor 2001 1080p BluRay x264-GHOULS[PRiME] Torerent to your PC, MAC, Tablet, Mobile or any other devices.
• HD Quality Torrent Sobibor 2001 1080p BluRay x264-GHOULS[PRiME]
• Your Support Keep WatchTorrentMovie.Us alive.

Torrent Files

Sobibor 2001 1080p BluRay x264-GHOULS[PRiME] (Size: 7.7 GB)
  Sobibor 2001 1080p BluRay x264-GHOULS[PRiME] 7.7 GB

Torrent Description




Sobibor.2001.1080p.BluRay.x264-GHOULS[PRiME]

ImDb: http://www.imdb.com/title/tt0286978



Complete name : sobibor.2001.1080p.bluray.x264-ghouls[PRiME].mkv
Format : Matroska
Format version : Version 4 / Version 2
File size : 7.65 GiB
Duration : 1 h 42 min
Overall bit rate : 10.7 Mb/s
Encoded date : UTC 2017-01-11 18:41:15
Writing application : mkvmerge v9.7.1 ('Pandemonium') 32bit
Writing library : libebml v1.3.4 + libmatroska v1.4.5

Video
ID : 3
Format : AVC
Format/Info : Advanced Video Codec
Format profile : [email protected]
Format settings, CABAC : Yes
Format settings, ReFrames : 4 frames
Codec ID : V_MPEG4/ISO/AVC
Duration : 1 h 42 min
Bit rate : 9 207 kb/s
Width : 1 792 pixels
Height : 1 080 pixels
Display aspect ratio : 5:3
Frame rate mode : Constant
Frame rate : 23.976 (24000/1001) FPS
Color space : YUV
Chroma subsampling : 4:2:0
Bit depth : 8 bits
Scan type : Progressive
Bits/(Pixel*Frame) : 0.198
Stream size : 6.42 GiB (84%)
Writing library : x264 core 148 r2744 b97ae06
Encoding settings : cabac=1 / ref=4 / deblock=1:-3:-3 / analyse=0x3:0x133 / me=umh / subme=8 / psy=1 / psy_rd=1.00:0.00 / mixed_ref=1 / me_range=16 / chroma_me=1 / trellis=1 / 8x8dct=1 / cqm=0 / deadzone=21,11 / fast_pskip=0 / chroma_qp_offset=-2 / threads=6 / lookahead_threads=1 / sliced_threads=0 / nr=0 / decimate=1 / interlaced=0 / bluray_compat=0 / constrained_intra=0 / bframes=3 / b_pyramid=2 / b_adapt=1 / b_bias=0 / direct=3 / weightb=1 / open_gop=0 / weightp=2 / keyint=240 / keyint_min=23 / scenecut=40 / intra_refresh=0 / rc_lookahead=50 / rc=2pass / mbtree=1 / bitrate=9207 / ratetol=1.0 / qcomp=0.60 / qpmin=0 / qpmax=69 / qpstep=4 / cplxblur=20.0 / qblur=0.5 / vbv_maxrate=62500 / vbv_bufsize=78125 / nal_hrd=none / filler=0 / ip_ratio=1.40 / aq=1:1.00
Default : Yes
Forced : No

Audio
ID : 1
Format : DTS
Format/Info : Digital Theater Systems
Mode : 16
Format settings, Endianness : Big
Codec ID : A_DTS
Duration : 1 h 42 min
Bit rate mode : Constant
Bit rate : 1 509 kb/s
Channel(s) : 6 channels
Channel positions : Front: L C R, Side: L R, LFE
Sampling rate : 48.0 kHz
Frame rate : 93.750 FPS (512 spf)
Bit depth : 24 bits
Compression mode : Lossy
Stream size : 1.08 GiB (14%)
Language : French
Default : Yes
Forced : No

Text
ID : 2
Format : UTF-8
Codec ID : S_TEXT/UTF8
Codec ID/Info : UTF-8 Plain Text
Language : English
Default : Yes
Forced : No

Menu
00:00:00.000 : en:00:00:00.000
00:07:16.436 : en:00:07:16.436
00:12:47.392 : en:00:12:47.392
00:24:04.943 : en:00:24:04.943
00:29:59.589 : en:00:29:59.589
00:35:36.426 : en:00:35:36.426
00:46:08.849 : en:00:46:08.849
01:05:12.242 : en:01:05:12.242
01:17:26.267 : en:01:17:26.267
01:26:38.235 : en:01:26:38.235
01:32:33.298 : en:01:32:33.298




Click Image To View Full Size


Click To View Screenshot
Click To View Screenshot
Click To View Screenshot




( Tags )





People also Search for: Sobibor 2001 1080p BluRay x264-GHOULS[PRiME]

  • • 1080p Sobibor 2001 1080p BluRay x264-GHOULS[PRiME] Torrent
  • • 720p Sobibor 2001 1080p BluRay x264-GHOULS[PRiME] DVDRip
  • • HD Sobibor 2001 1080p BluRay x264-GHOULS[PRiME]
  • • Dvix/Xvid Sobibor 2001 1080p BluRay x264-GHOULS[PRiME]
  • • Blu-ray Sobibor 2001 1080p BluRay x264-GHOULS[PRiME]

Recently Added Torrents

torrent name size age seed leech
403.82 MB 12 minutes 511 63
358.62 MB 12 minutes 31 228
342.22 MB 12 minutes 247 307
1.01 GB 12 minutes 21 145
218.03 MB 12 minutes 507 14