Loading...
Loading...

Speechless.S01E12.720p.HDTV.x264-AVS[PRiME]

seeders: 176
leechers: 225
Speechless.S01E12.720p.HDTV.x264-AVS[PRiME] magnet link

Info Hash: 845204000C275F1E13B5E6A4CE6B2DF5E79024F5
Speechless.S01E12.720p.HDTV.x264-AVS[PRiME]
  • Downloads 4
  • Added 1 month
  • Quality Good
  • Torrent ID 16593875
  • Note if .torrent file deleted click magnet below
  • Download Magnet
Torrent Info:
• You can easily download Speechless.S01E12.720p.HDTV.x264-AVS[PRiME] Torerent to your PC, MAC, Tablet, Mobile or any other devices.
• HD Quality Torrent Speechless.S01E12.720p.HDTV.x264-AVS[PRiME]
• Your Support Keep WatchTorrentMovie.Us alive.

Torrent Files

Speechless.S01E12.720p.HDTV.x264-AVS[PRiME] (Size: 575.70 MB)
  Speechless.S01E12.720p.HDTV.x264-AVS[PRiME] 575.70 MB

Torrent Description



Speechless.S01E12.720p.HDTV.x264-AVS



Complete name                            : Speechless.S01E12.720p.HDTV.x264-AVS.mkv
Format                                   : Matroska
Format version                           : Version 4 / Version 2
File size                                : 576 MiB
Duration                                 : 20 min 55 s
Overall bit rate                         : 3 846 kb/s
Encoded date                             : UTC 2017-01-12 01:31:18
Writing application                      : FastLE v2.5.0 - AVS
Writing library                          : libx264 + libebml + libmatroska + libfastrar

Video
ID                                       : 1
Format                                   : AVC
Format/Info                              : Advanced Video Codec
Format profile                           :
Format settings, CABAC                   : Yes
Format settings, ReFrames                : 5 frames
Codec ID                                 : V_MPEG4/ISO/AVC
Duration                                 : 20 min 55 s
Bit rate                                 : 3 385 kb/s
Width                                    : 1 280 pixels
Height                                   : 718 pixels
Display aspect ratio                     : 16:9
Frame rate mode                          : Constant
Frame rate                               : 23.976 (24000/1001) FPS
Color space                              : YUV
Chroma subsampling                       : 4:2:0
Bit depth                                : 8 bits
Scan type                                : Progressive
Bits/(Pixel*Frame)                       : 0.154
Stream size                              : 507 MiB (88%)
Writing library                          : x264 core 148 r2744 b97ae06
Encoding settings                        : cabac=1 / ref=5 / deblock=1:0:0 / analyse=0x3:0x113 / me=hex / subme=8 / psy=1 / psy_rd=1.00:0.00 / mixed_ref=1 / me_range=16 / chroma_me=1 / trellis=2 / 8x8dct=1 / cqm=0 / deadzone=21,11 / fast_pskip=1 / chroma_qp_offset=-2 / threads=22 / lookahead_threads=3 / sliced_threads=0 / nr=0 / decimate=1 / interlaced=0 / bluray_compat=0 / constrained_intra=0 / bframes=3 / b_pyramid=2 / b_adapt=1 / b_bias=0 / direct=3 / weightb=1 / open_gop=0 / weightp=2 / keyint=250 / keyint_min=23 / scenecut=40 / intra_refresh=0 / rc_lookahead=50 / rc=crf / mbtree=1 / crf=18.0 / qcomp=0.60 / qpmin=0 / qpmax=69 / qpstep=4 / ip_ratio=1.40 / aq=1:1.00
Default                                  : Yes
Forced                                   : No
Color range                              : Limited
Matrix coefficients                      : BT.709

Audio
ID                                       : 2
Format                                   : AC-3
Format/Info                              : Audio Coding 3
Mode extension                           : CM (complete main)
Format settings, Endianness              : Big
Codec ID                                 : A_AC3
Duration                                 : 20 min 55 s
Bit rate mode                            : Constant
Bit rate                                 : 384 kb/s
Channel(s)                               : 6 channels
Channel positions                        : Front: L C R, Side: L R, LFE
Sampling rate                            : 48.0 kHz
Frame rate                               : 31.250 FPS (1536 spf)
Compression mode                         : Lossy
Stream size                              : 57.5 MiB (10%)
Default                                  : Yes
Forced                                   : No




Click Image To View Full Size


Click To View Screenshot
Click To View Screenshot
Click To View Screenshot


( Tags )





People also Search for: Speechless.S01E12.720p.HDTV.x264-AVS[PRiME]

  • • 1080p Speechless.S01E12.720p.HDTV.x264-AVS[PRiME] Torrent
  • • 720p Speechless.S01E12.720p.HDTV.x264-AVS[PRiME] DVDRip
  • • HD Speechless.S01E12.720p.HDTV.x264-AVS[PRiME]
  • • Dvix/Xvid Speechless.S01E12.720p.HDTV.x264-AVS[PRiME]
  • • Blu-ray Speechless.S01E12.720p.HDTV.x264-AVS[PRiME]

Recently Added Torrents

torrent name size age seed leech
137.52 MB 7 minutes 236 395
1.17 GB 7 minutes 704 337
Old Guy On Cam
Posted by   Bboomegool  in  XXX
106.4 MB 7 minutes 239 341
1.9 GB 7 minutes 279 492
132.0 MB 7 minutes 391 389