Loading...

The.Fury.of.a.Patient.Man.2016.BDRip.x264-BiPOLAR[PRiME]

seeders: 715
leechers: 400
The.Fury.of.a.Patient.Man.2016.BDRip.x264-BiPOLAR[PRiME] magnet link

Info Hash: 78D720C05C6ADA9DEBC3E6689FA23D4F69153ACE
The.Fury.of.a.Patient.Man.2016.BDRip.x264-BiPOLAR[PRiME]
  • Downloads 9
  • Added 5 days
  • Quality Good
  • Torrent ID 16594614
  • Note if .torrent file deleted click magnet below
  • Download Magnet
Torrent Info:
• You can easily download The.Fury.of.a.Patient.Man.2016.BDRip.x264-BiPOLAR[PRiME] Torerent to your PC, MAC, Tablet, Mobile or any other devices.
• HD Quality Torrent The.Fury.of.a.Patient.Man.2016.BDRip.x264-BiPOLAR[PRiME]
• Your Support Keep WatchTorrentMovie.Us alive.

Torrent Files

The.Fury.of.a.Patient.Man.2016.BDRip.x264-BiPOLAR[PRiME] (Size: 774.63 MB)
  The.Fury.of.a.Patient.Man.2016.BDRip.x264-BiPOLAR[PRiME] 774.63 MB

Torrent Description



The.Fury.of.a.Patient.Man.2016.BDRip.x264-BiPOLAR

ImDb: http://www.imdb.com/title/tt4771896



Complete name                            : the.fury.of.a.patient.man.2016.bdrip.x264-bipolar.mkv
Format                                   : Matroska
Format version                           : Version 4 / Version 2
File size                                : 775 MiB
Duration                                 : 1 h 32 min
Overall bit rate                         : 1 176 kb/s
Encoded date                             : UTC 2017-01-12 01:50:43
Writing application                      : mkvmerge v8.3.0 ('Over the Horizon') 64bit
Writing library                          : libebml v1.3.1 + libmatroska v1.4.2

Video
ID                                       : 1
Format                                   : AVC
Format/Info                              : Advanced Video Codec
Format profile                           :
Format settings, CABAC                   : Yes
Format settings, ReFrames                : 5 frames
Codec ID                                 : V_MPEG4/ISO/AVC
Duration                                 : 1 h 32 min
Bit rate                                 : 1 041 kb/s
Width                                    : 720 pixels
Height                                   : 302 pixels
Display aspect ratio                     : 2.40:1
Frame rate mode                          : Constant
Frame rate                               : 24.000 FPS
Color space                              : YUV
Chroma subsampling                       : 4:2:0
Bit depth                                : 8 bits
Scan type                                : Progressive
Bits/(Pixel*Frame)                       : 0.199
Stream size                              : 685 MiB (88%)
Writing library                          : x264 core 148 r2705 3f5ed56
Encoding settings                        : cabac=1 / ref=5 / deblock=1:-1:-1 / analyse=0x3:0x113 / me=umh / subme=8 / psy=1 / psy_rd=1.00:0.15 / mixed_ref=1 / me_range=16 / chroma_me=1 / trellis=2 / 8x8dct=1 / cqm=0 / deadzone=21,11 / fast_pskip=1 / chroma_qp_offset=-3 / threads=9 / lookahead_threads=1 / sliced_threads=0 / nr=0 / decimate=1 / interlaced=0 / bluray_compat=0 / constrained_intra=0 / bframes=3 / b_pyramid=2 / b_adapt=2 / b_bias=0 / direct=3 / weightb=1 / open_gop=0 / weightp=2 / keyint=250 / keyint_min=24 / scenecut=40 / intra_refresh=0 / rc_lookahead=50 / rc=crf / mbtree=1 / crf=19.0 / qcomp=0.60 / qpmin=0 / qpmax=69 / qpstep=4 / ip_ratio=1.40 / aq=1:1.00
Language                                 : English
Default                                  : Yes
Forced                                   : No
Color range                              : Limited
Matrix coefficients                      : BT.709

Audio
ID                                       : 2
Format                                   : AAC
Format/Info                              : Advanced Audio Codec
Format profile                           : LC
Codec ID                                 : A_AAC
Duration                                 : 1 h 32 min
Bit rate                                 : 132 kb/s
Channel(s)                               : 2 channels
Channel positions                        : Front: L R
Sampling rate                            : 48.0 kHz
Frame rate                               : 46.875 FPS (1024 spf)
Compression mode                         : Lossy
Delay relative to video                  : 9 ms
Stream size                              : 87.8 MiB (11%)
Language                                 : Spanish
Default                                  : Yes
Forced                                   : No

Text
ID                                       : 3
Format                                   : UTF-8
Codec ID                                 : S_TEXT/UTF8
Codec ID/Info                            : UTF-8 Plain Text
Duration                                 : 1 h 31 min
Bit rate                                 : 35 b/s
Count of elements                        : 766
Stream size                              : 23.5 KiB (0%)
Title                                    : forced
Language                                 : English
Default                                  : Yes
Forced                                   : Yes

Menu
00:00:00.000                             : en:00:00:00.000
00:05:50.958                             : en:00:05:50.958
00:11:11.375                             : en:00:11:11.375
00:15:18.083                             : en:00:15:18.083
00:20:44.375                             : en:00:20:44.375
00:29:05.417                             : en:00:29:05.417
00:33:57.708                             : en:00:33:57.708
00:39:30.458                             : en:00:39:30.458
00:44:06.708                             : en:00:44:06.708
00:51:09.042                             : en:00:51:09.042
00:57:18.208                             : en:00:57:18.208
01:02:31.583                             : en:01:02:31.583
01:07:58.958                             : en:01:07:58.958
01:14:00.167                             : en:01:14:00.167
01:23:27.250                             : en:01:23:27.250
01:26:45.958                             : en:01:26:45.958




Click Image To View Full Size


Click To View Screenshot
Click To View Screenshot
Click To View Screenshot


( Tags )





People also Search for: The.Fury.of.a.Patient.Man.2016.BDRip.x264-BiPOLAR[PRiME]

  • • 1080p The.Fury.of.a.Patient.Man.2016.BDRip.x264-BiPOLAR[PRiME] Torrent
  • • 720p The.Fury.of.a.Patient.Man.2016.BDRip.x264-BiPOLAR[PRiME] DVDRip
  • • HD The.Fury.of.a.Patient.Man.2016.BDRip.x264-BiPOLAR[PRiME]
  • • Dvix/Xvid The.Fury.of.a.Patient.Man.2016.BDRip.x264-BiPOLAR[PRiME]
  • • Blu-ray The.Fury.of.a.Patient.Man.2016.BDRip.x264-BiPOLAR[PRiME]

Recently Added Torrents

torrent name size age seed leech
287.58 MB 18 minutes 526 285
314.49 MB 18 minutes 177 413
1.22 GB 18 minutes 117 333
939.79 MB 18 minutes 114 397
1.34 GB 18 minutes 550 291