Loading...

The.Sect.1991.720p.BluRay.x264-BiPOLAR[PRiME]

seeders: 752
leechers: 13
The.Sect.1991.720p.BluRay.x264-BiPOLAR[PRiME] magnet link

Info Hash: 923701C358E0E73E30070570132668505526B1C9
The.Sect.1991.720p.BluRay.x264-BiPOLAR[PRiME]
  • Downloads 8
  • Added 1 week
  • Quality Good
  • Torrent ID 16594629
  • Note if .torrent file deleted click magnet below
  • Download Magnet
Torrent Info:
• You can easily download The.Sect.1991.720p.BluRay.x264-BiPOLAR[PRiME] Torerent to your PC, MAC, Tablet, Mobile or any other devices.
• HD Quality Torrent The.Sect.1991.720p.BluRay.x264-BiPOLAR[PRiME]
• Your Support Keep WatchTorrentMovie.Us alive.

Torrent Files

The.Sect.1991.720p.BluRay.x264-BiPOLAR[PRiME] (Size: 5.51 GB)
  The.Sect.1991.720p.BluRay.x264-BiPOLAR[PRiME] 5.51 GB

Torrent Description



The.Sect.1991.720p.BluRay.x264-BiPOLAR

ImDb: http://www.imdb.com/title/tt0100581



Complete name                            : the.sect.1991.720p.bluray.x264-bipolar.mkv
Format                                   : Matroska
Format version                           : Version 4 / Version 2
File size                                : 5.47 GiB
Duration                                 : 1 h 56 min
Overall bit rate mode                    : Variable
Overall bit rate                         : 6 702 kb/s
Encoded date                             : UTC 2017-01-08 19:14:18
Writing application                      : mkvmerge v8.3.0 ('Over the Horizon') 64bit
Writing library                          : libebml v1.3.1 + libmatroska v1.4.2

Video
ID                                       : 1
Format                                   : AVC
Format/Info                              : Advanced Video Codec
Format profile                           :
Format settings, CABAC                   : Yes
Format settings, ReFrames                : 5 frames
Codec ID                                 : V_MPEG4/ISO/AVC
Duration                                 : 1 h 56 min
Bit rate                                 : 4 887 kb/s
Width                                    : 1 280 pixels
Height                                   : 720 pixels
Display aspect ratio                     : 16:9
Frame rate mode                          : Constant
Frame rate                               : 23.976 (24000/1001) FPS
Color space                              : YUV
Chroma subsampling                       : 4:2:0
Bit depth                                : 8 bits
Scan type                                : Progressive
Bits/(Pixel*Frame)                       : 0.221
Stream size                              : 3.98 GiB (73%)
Writing library                          : x264 core 148 r2705 3f5ed56
Encoding settings                        : cabac=1 / ref=5 / deblock=1:0:0 / analyse=0x3:0x133 / me=umh / subme=9 / psy=1 / psy_rd=1.00:0.00 / mixed_ref=1 / me_range=16 / chroma_me=1 / trellis=2 / 8x8dct=1 / cqm=0 / deadzone=21,11 / fast_pskip=0 / chroma_qp_offset=-2 / threads=18 / lookahead_threads=1 / sliced_threads=0 / nr=0 / decimate=1 / interlaced=0 / bluray_compat=0 / constrained_intra=0 / bframes=3 / b_pyramid=2 / b_adapt=2 / b_bias=0 / direct=3 / weightb=1 / open_gop=0 / weightp=2 / keyint=250 / keyint_min=23 / scenecut=40 / intra_refresh=0 / rc_lookahead=50 / rc=2pass / mbtree=1 / bitrate=4887 / ratetol=1.0 / qcomp=0.60 / qpmin=0 / qpmax=69 / qpstep=4 / cplxblur=20.0 / qblur=0.5 / ip_ratio=1.40 / aq=1:1.00
Language                                 : English
Default                                  : Yes
Forced                                   : No

Audio #1
ID                                       : 2
Format                                   : DTS
Format/Info                              : Digital Theater Systems
Mode                                     : 16
Format settings, Endianness              : Big
Codec ID                                 : A_DTS
Duration                                 : 1 h 56 min
Bit rate mode                            : Constant
Bit rate                                 : 1 509 kb/s
Channel(s)                               : 6 channels
Channel positions                        : Front: L C R, Side: L R, LFE
Sampling rate                            : 48.0 kHz
Frame rate                               : 93.750 FPS (512 spf)
Bit depth                                : 24 bits
Compression mode                         : Lossy
Stream size                              : 1.23 GiB (23%)
Language                                 : Italian
Default                                  : Yes
Forced                                   : No

Audio #2
ID                                       : 3
Format                                   : FLAC
Format/Info                              : Free Lossless Audio Codec
Codec ID                                 : A_FLAC
Duration                                 : 1 h 56 min
Bit rate mode                            : Variable
Bit rate                                 : 304 kb/s
Channel(s)                               : 2 channels
Channel positions                        : Front: L R
Sampling rate                            : 48.0 kHz
Frame rate                               : 11.719 FPS (4096 spf)
Bit depth                                : 16 bits
Stream size                              : 254 MiB (5%)
Writing library                          : libFLAC 1.2.1 (UTC 2007-09-17)
Language                                 : English
Default                                  : No
Forced                                   : No

Text
ID                                       : 4
Format                                   : UTF-8
Codec ID                                 : S_TEXT/UTF8
Codec ID/Info                            : UTF-8 Plain Text
Duration                                 : 1 h 54 min
Bit rate                                 : 26 b/s
Count of elements                        : 649
Stream size                              : 22.0 KiB (0%)
Title                                    : forced
Language                                 : English
Default                                  : Yes
Forced                                   : Yes




Click Image To View Full Size


Click To View Screenshot
Click To View Screenshot
Click To View Screenshot


( Tags )





People also Search for: The.Sect.1991.720p.BluRay.x264-BiPOLAR[PRiME]

  • • 1080p The.Sect.1991.720p.BluRay.x264-BiPOLAR[PRiME] Torrent
  • • 720p The.Sect.1991.720p.BluRay.x264-BiPOLAR[PRiME] DVDRip
  • • HD The.Sect.1991.720p.BluRay.x264-BiPOLAR[PRiME]
  • • Dvix/Xvid The.Sect.1991.720p.BluRay.x264-BiPOLAR[PRiME]
  • • Blu-ray The.Sect.1991.720p.BluRay.x264-BiPOLAR[PRiME]

Recently Added Torrents

torrent name size age seed leech
970.73 MB 18 minutes 229 428
1.17 GB 18 minutes 118 444
970.73 MB 18 minutes 100 210
7.34 MB 18 minutes 90 287
77.58 MB 18 minutes 433 357