Loading...

Valley Of The Sasquatch 2016 English Movies HDRip XviD AAC New Source with Sample ☻rDX☻

seeders: 561
leechers: 209
Valley Of The Sasquatch 2016 English Movies HDRip XviD AAC New Source with Sample ☻rDX☻ magnet link

Info Hash: 54A60C03B1A6E3A1BF5DAEA22EE8DFB6C53D09D2
Valley Of The Sasquatch 2016 English Movies HDRip XviD AAC New Source with Sample ☻rDX☻
  • Downloads 7
  • Added 1 week
  • Quality Good
  • Torrent ID 16584331
  • Note if .torrent file deleted click magnet below
  • Download Magnet
Torrent Info:
• You can easily download Valley Of The Sasquatch 2016 English Movies HDRip XviD AAC New Source with Sample ☻rDX☻ Torerent to your PC, MAC, Tablet, Mobile or any other devices.
• HD Quality Torrent Valley Of The Sasquatch 2016 English Movies HDRip XviD AAC New Source with Sample ☻rDX☻
• Your Support Keep WatchTorrentMovie.Us alive.

Torrent Files

Valley Of The Sasquatch 2016 English Movies HDRip XviD AAC New Source with Sample ☻rDX☻ (Size: 706.0 MB)
  Valley Of The Sasquatch 2016 English Movies HDRip XviD AAC New Source with Sample ☻rDX☻ 706.0 MB

Torrent Description



Valley Of The Sasquatch 2016 English Movies HDRip XviD AAC New Source with Sample ☻rDX☻

SCREEN SHOTS:



or

http://postimage.co.nr/2017/1/sale/1.html

Format : Matroska
Format version : Version 4 / Version 2
File size : 698 MiB
Duration : 1 h 31 min
Overall bit rate mode : Constant
Overall bit rate : 1 071 kb/s
Movie name : Valley Of The Sasquatch 2016 English Movies HDRip XviD AAC New Source ☻rDX☻

Video
ID : 2
Format : AVC
Format/Info : Advanced Video Codec
Format profile : [email protected]
Format settings, CABAC : Yes
Format settings, ReFrames : 2 frames
Format settings, GOP : M=1, N=12
Codec ID : V_MPEG4/ISO/AVC
Duration : 1 h 31 min
Bit rate mode : Constant
Bit rate : 688 kb/s
Width : 720 pixels
Height : 400 pixels
Display aspect ratio : 16:9
Frame rate mode : Constant
Frame rate : 23.976 FPS
Color space : YUV
Chroma subsampling : 4:2:0
Bit depth : 8 bits
Scan type : Progressive
Bits/(Pixel*Frame) : 0.100
Stream size : 434 MiB (62%)
Title : ☻rDX☻
Default : Yes
Forced : No

Audio
ID : 1
Format : AC-3
Format/Info : Audio Coding 3
Mode extension : CM (complete main)
Format settings, Endianness : Big
Codec ID : A_AC3
Duration : 1 h 31 min
Bit rate mode : Constant
Bit rate : 384 kb/s
Channel(s) : 6 channels
Channel positions : Front: L C R, Side: L R, LFE
Sampling rate : 48.0 kHz
Frame rate : 31.250 FPS (1536 spf)
Bit depth : 16 bits
Compression mode : Lossy
Stream size : 250 MiB (36%)
Title : ☻rDX☻
Default : Yes
Forced : No



IMDB : na




( Tags )





People also Search for: Valley Of The Sasquatch 2016 English Movies HDRip XviD AAC New Source with Sampl

  • • 1080p Valley Of The Sasquatch 2016 English Movies HDRip XviD AAC New Source with Sampl Torrent
  • • 720p Valley Of The Sasquatch 2016 English Movies HDRip XviD AAC New Source with Sampl DVDRip
  • • HD Valley Of The Sasquatch 2016 English Movies HDRip XviD AAC New Source with Sampl
  • • Dvix/Xvid Valley Of The Sasquatch 2016 English Movies HDRip XviD AAC New Source with Sampl
  • • Blu-ray Valley Of The Sasquatch 2016 English Movies HDRip XviD AAC New Source with Sampl

Recently Added Torrents

torrent name size age seed leech
143.9 MB 24 minutes 485 120
164.1 MB 24 minutes 99 64
123.5 MB 24 minutes 121 445
112.1 MB 24 minutes 164 198
62.8 MB 24 minutes 715 133