Loading...
Loading...
Loading...
Loading...
Loading...
Loading...
Loading...
Loading...

Vikings.S04E17.720p.HDTV.x264-SVA[PRiME]

seeders: 505
leechers: 25
Vikings.S04E17.720p.HDTV.x264-SVA[PRiME] magnet link

Info Hash: 410EE60A9DF8C6DE7D23573261B8A5F860D7B747
Loading...
Vikings.S04E17.720p.HDTV.x264-SVA[PRiME]
  • Downloads 8
  • Added 2 months
  • Quality Good
  • Torrent ID 16594065
  • Note if .torrent file deleted click magnet below
  • Download Magnet
Torrent Info:
• You can easily download Vikings.S04E17.720p.HDTV.x264-SVA[PRiME] Torerent to your PC, MAC, Tablet, Mobile or any other devices.
• HD Quality Torrent Vikings.S04E17.720p.HDTV.x264-SVA[PRiME]
• Your Support Keep WatchTorrentMovie.Us alive.

Torrent Files

Vikings.S04E17.720p.HDTV.x264-SVA[PRiME] (Size: 906.58 MB)
  Vikings.S04E17.720p.HDTV.x264-SVA[PRiME] 906.58 MB

Torrent Description



Vikings.S04E17.720p.HDTV.x264-SVA



Complete name                            : Vikings.S04E17.720p.HDTV.x264-SVA.mkv
Format                                   : Matroska
Format version                           : Version 4 / Version 2
File size                                : 907 MiB
Duration                                 : 43 min 29 s
Overall bit rate                         : 2 914 kb/s
Encoded date                             : UTC 2017-01-12 02:23:59
Writing application                      : FastLE v2.5.0 - AVS
Writing library                          : libx264 + libebml + libmatroska + libfastrar

Video
ID                                       : 1
Format                                   : AVC
Format/Info                              : Advanced Video Codec
Format profile                           :
Format settings, CABAC                   : Yes
Format settings, ReFrames                : 5 frames
Codec ID                                 : V_MPEG4/ISO/AVC
Duration                                 : 43 min 29 s
Bit rate                                 : 2 472 kb/s
Width                                    : 1 280 pixels
Height                                   : 720 pixels
Display aspect ratio                     : 16:9
Frame rate mode                          : Constant
Frame rate                               : 23.976 (24000/1001) FPS
Color space                              : YUV
Chroma subsampling                       : 4:2:0
Bit depth                                : 8 bits
Scan type                                : Progressive
Bits/(Pixel*Frame)                       : 0.112
Stream size                              : 769 MiB (85%)
Writing library                          : x264 core 148 r2744 b97ae06
Encoding settings                        : cabac=1 / ref=5 / deblock=1:0:0 / analyse=0x3:0x113 / me=hex / subme=8 / psy=1 / psy_rd=1.00:0.00 / mixed_ref=1 / me_range=16 / chroma_me=1 / trellis=2 / 8x8dct=1 / cqm=0 / deadzone=21,11 / fast_pskip=1 / chroma_qp_offset=-2 / threads=22 / lookahead_threads=3 / sliced_threads=0 / nr=0 / decimate=1 / interlaced=0 / bluray_compat=0 / constrained_intra=0 / bframes=3 / b_pyramid=2 / b_adapt=1 / b_bias=0 / direct=3 / weightb=1 / open_gop=0 / weightp=2 / keyint=250 / keyint_min=23 / scenecut=40 / intra_refresh=0 / rc_lookahead=50 / rc=crf / mbtree=1 / crf=18.0 / qcomp=0.60 / qpmin=0 / qpmax=69 / qpstep=4 / ip_ratio=1.40 / aq=1:1.00
Default                                  : Yes
Forced                                   : No
Color range                              : Limited
Matrix coefficients                      : BT.709

Audio
ID                                       : 2
Format                                   : AC-3
Format/Info                              : Audio Coding 3
Mode extension                           : CM (complete main)
Format settings, Endianness              : Big
Codec ID                                 : A_AC3
Duration                                 : 43 min 29 s
Bit rate mode                            : Constant
Bit rate                                 : 384 kb/s
Channel(s)                               : 6 channels
Channel positions                        : Front: L C R, Side: L R, LFE
Sampling rate                            : 48.0 kHz
Frame rate                               : 31.250 FPS (1536 spf)
Compression mode                         : Lossy
Stream size                              : 119 MiB (13%)
Default                                  : Yes
Forced                                   : No




Click Image To View Full Size


Click To View Screenshot
Click To View Screenshot
Click To View Screenshot


( Tags )





People also Search for: Vikings.S04E17.720p.HDTV.x264-SVA[PRiME]

  • • 1080p Vikings.S04E17.720p.HDTV.x264-SVA[PRiME] Torrent
  • • 720p Vikings.S04E17.720p.HDTV.x264-SVA[PRiME] DVDRip
  • • HD Vikings.S04E17.720p.HDTV.x264-SVA[PRiME]
  • • Dvix/Xvid Vikings.S04E17.720p.HDTV.x264-SVA[PRiME]
  • • Blu-ray Vikings.S04E17.720p.HDTV.x264-SVA[PRiME]

Recently Added Torrents

torrent name size age seed leech

Posted by   Admin  in 
8 months 726 325
312.98 MB 27 minutes 547 8
235.77 MB 27 minutes 77 102
333.54 MB 27 minutes 136 125
431.75 MB 27 minutes 758 215