Loading...
Loading...

Why Him 2016 English Movies HD Cam XviD AAC Clean Audio New Source with Sample ☻rDX☻

seeders: 55
leechers: 310
Why Him 2016 English Movies HD Cam XviD AAC Clean Audio New Source with Sample ☻rDX☻ magnet link

Info Hash: 4A509B9F085E5BBBB044059434BAB96E0C0A0C5E
Why Him 2016 English Movies HD Cam XviD AAC Clean Audio New Source with Sample ☻rDX☻
  • Downloads 10
  • Added 1 month
  • Quality Good
  • Torrent ID 16581672
  • Note if .torrent file deleted click magnet below
  • Download Magnet
Torrent Info:
• You can easily download Why Him 2016 English Movies HD Cam XviD AAC Clean Audio New Source with Sample ☻rDX☻ Torerent to your PC, MAC, Tablet, Mobile or any other devices.
• HD Quality Torrent Why Him 2016 English Movies HD Cam XviD AAC Clean Audio New Source with Sample ☻rDX☻
• Your Support Keep WatchTorrentMovie.Us alive.

Torrent Files

Why Him 2016 English Movies HD Cam XviD AAC Clean Audio New Source with Sample ☻rDX☻ (Size: 705.5 MB)
  Why Him 2016 English Movies HD Cam XviD AAC Clean Audio New Source with Sample ☻rDX☻ 705.5 MB

Torrent Description



Why Him 2016 English Movies HD Cam XviD AAC Clean Audio New Source with Sample ☻rDX☻

SCREEN SHOTS:



or

http://postimage.co.nr/2017/1/selling/1.html

Format : Matroska
Format version : Version 4 / Version 2
File size : 697 MiB
Duration : 1 h 47 min
Overall bit rate mode : Constant
Overall bit rate : 911 kb/s
Movie name : Why Him 2016 English Movies HD Cam XviD AAC Clean Audio New Source ☻rDX☻

Video
ID : 2
Format : AVC
Format/Info : Advanced Video Codec
Format profile : [email protected]
Format settings, CABAC : Yes
Format settings, ReFrames : 2 frames
Format settings, GOP : M=1, N=12
Codec ID : V_MPEG4/ISO/AVC
Duration : 1 h 47 min
Bit rate mode : Constant
Bit rate : 656 kb/s
Width : 720 pixels
Height : 376 pixels
Display aspect ratio : 1.915
Frame rate mode : Constant
Frame rate : 30.000 FPS
Color space : YUV
Chroma subsampling : 4:2:0
Bit depth : 8 bits
Scan type : Progressive
Bits/(Pixel*Frame) : 0.081
Stream size : 488 MiB (70%)
Title : ☻rDX☻
Default : Yes
Forced : No

Audio
ID : 1
Format : AC-3
Format/Info : Audio Coding 3
Mode extension : CM (complete main)
Format settings, Endianness : Big
Codec ID : A_AC3
Duration : 1 h 47 min
Bit rate mode : Constant
Bit rate : 256 kb/s
Channel(s) : 2 channels
Channel positions : Front: L R
Sampling rate : 48.0 kHz
Frame rate : 31.250 FPS (1536 spf)
Bit depth : 16 bits
Compression mode : Lossy
Delay relative to video : 22 ms
Stream size : 196 MiB (28%)
Title : ☻rDX☻
Default : Yes
Forced : No



IMDB : http://www.imdb.com/title/tt4501244/




( Tags )





People also Search for: Why Him 2016 English Movies HD Cam XviD AAC Clean Audio New Source with Sample

  • • 1080p Why Him 2016 English Movies HD Cam XviD AAC Clean Audio New Source with Sample Torrent
  • • 720p Why Him 2016 English Movies HD Cam XviD AAC Clean Audio New Source with Sample DVDRip
  • • HD Why Him 2016 English Movies HD Cam XviD AAC Clean Audio New Source with Sample
  • • Dvix/Xvid Why Him 2016 English Movies HD Cam XviD AAC Clean Audio New Source with Sample
  • • Blu-ray Why Him 2016 English Movies HD Cam XviD AAC Clean Audio New Source with Sample

Recently Added Torrents

torrent name size age seed leech
2.3 GB 17 minutes 165 52
651.2 MB 17 minutes 555 354
5.21 GB 17 minutes 786 235
2.54 GB 17 minutes 44 213
1.1 GB 17 minutes 298 109