Loading...
Loading...

Dont Think Twice 2016 DVDRip x264 AC3-iFT[PRiME]

seeders: 239
leechers: 149
Dont Think Twice 2016 DVDRip x264 AC3-iFT[PRiME] magnet link

Info Hash: 7AED9BA47AF509F9058D3F799E3B9EA5630F78B3
Dont Think Twice 2016 DVDRip x264 AC3-iFT[PRiME]
  • Downloads 9
  • Added 1 month
  • Quality Good
  • Torrent ID 16594795
  • Note if .torrent file deleted click magnet below
  • Download Magnet
Torrent Info:
• You can easily download Dont Think Twice 2016 DVDRip x264 AC3-iFT[PRiME] Torerent to your PC, MAC, Tablet, Mobile or any other devices.
• HD Quality Torrent Dont Think Twice 2016 DVDRip x264 AC3-iFT[PRiME]
• Your Support Keep WatchTorrentMovie.Us alive.

Torrent Files

Dont Think Twice 2016 DVDRip x264 AC3-iFT[PRiME] (Size: 1.7 GB)
  Dont Think Twice 2016 DVDRip x264 AC3-iFT[PRiME] 1.7 GB

Torrent Description




Dont.Think.Twice.2016.DVDRip.x264.AC3-iFT[PRiME]

ImDb: http://www.imdb.com/title/tt4972062



Complete name : Dont.Think.Twice.2016.DVDRip.x264.AC3-iFT[PRiME].mkv
Format : Matroska
Format version : Version 4 / Version 2
File size : 1.67 GiB
Duration : 1 h 32 min
Overall bit rate : 2 600 kb/s
Encoded date : UTC 2017-01-12 09:25:23
Writing application : mkvmerge v9.4.2 ('So High') 64bit
Writing library : libebml v1.3.4 + libmatroska v1.4.5

Video
ID : 1
Format : AVC
Format/Info : Advanced Video Codec
Format profile : [email protected]
Format settings, CABAC : Yes
Format settings, ReFrames : 10 frames
Codec ID : V_MPEG4/ISO/AVC
Duration : 1 h 32 min
Bit rate : 2 150 kb/s
Width : 720 pixels
Height : 304 pixels
Display aspect ratio : 2.35:1
Frame rate mode : Constant
Frame rate : 23.976 (24000/1001) FPS
Color space : YUV
Chroma subsampling : 4:2:0
Bit depth : 8 bits
Scan type : Progressive
Bits/(Pixel*Frame) : 0.410
Stream size : 1.38 GiB (83%)
Writing library : x264 core 142 r2431+42 c69a006 tMod [[email protected] X86_64]
Encoding settings : cabac=1 / ref=10 / deblock=1:-3:-3 / analyse=0x3:0x113 / me=umh / subme=10 / psy=1 / fade_compensate=0.00 / psy_rd=1.05:1.05 / mixed_ref=1 / me_range=48 / chroma_me=1 / trellis=2 / 8x8dct=1 / cqm=0 / deadzone=21,11 / fast_pskip=0 / chroma_qp_offset=-4 / threads=16 / lookahead_threads=2 / sliced_threads=0 / nr=0 / decimate=0 / interlaced=0 / bluray_compat=0 / constrained_intra=0 / fgo=0 / bframes=8 / b_pyramid=2 / b_adapt=2 / b_bias=0 / direct=3 / weightb=1 / open_gop=0 / weightp=2 / keyint=240 / keyint_min=23 / scenecut=40 / intra_refresh=0 / rc_lookahead=100 / rc=2pass / mbtree=0 / bitrate=2150 / ratetol=1.0 / qcomp=0.60 / qpmin=0:0:0 / qpmax=69:69:69 / qpstep=4 / cplxblur=20.0 / qblur=0.5 / vbv_maxrate=62500 / vbv_bufsize=78125 / nal_hrd=none / filler=0 / ip_ratio=1.30 / pb_ratio=1.20 / aq=2:0.70 / aq-sensitivity=10.00 / aq-factor=1.00:1.00:1.00 / aq2=0 / aq3=0
Language : English
Default : Yes
Forced : No
Color range : Limited
Color primaries : BT.709
Transfer characteristics : BT.709
Matrix coefficients : BT.709

Audio
ID : 2
Format : AC-3
Format/Info : Audio Coding 3
Mode extension : CM (complete main)
Format settings, Endianness : Big
Codec ID : A_AC3
Duration : 1 h 32 min
Bit rate mode : Constant
Bit rate : 448 kb/s
Channel(s) : 6 channels
Channel positions : Front: L C R, Side: L R, LFE
Sampling rate : 48.0 kHz
Frame rate : 31.250 FPS (1536 spf)
Compression mode : Lossy
Stream size : 295 MiB (17%)
Language : English
Default : Yes
Forced : No




Click Image To View Full Size


Click To View Screenshot
Click To View Screenshot
Click To View Screenshot




( Tags )





People also Search for: Dont Think Twice 2016 DVDRip x264 AC3-iFT[PRiME]

  • • 1080p Dont Think Twice 2016 DVDRip x264 AC3-iFT[PRiME] Torrent
  • • 720p Dont Think Twice 2016 DVDRip x264 AC3-iFT[PRiME] DVDRip
  • • HD Dont Think Twice 2016 DVDRip x264 AC3-iFT[PRiME]
  • • Dvix/Xvid Dont Think Twice 2016 DVDRip x264 AC3-iFT[PRiME]
  • • Blu-ray Dont Think Twice 2016 DVDRip x264 AC3-iFT[PRiME]

Recently Added Torrents

torrent name size age seed leech

Posted by   Admin  in 
7 months 554 257
2.3 GB 22 minutes 702 449
651.2 MB 22 minutes 468 371
5.21 GB 22 minutes 721 26
2.54 GB 22 minutes 726 242