Loading...
Loading...

Robinson Crusoe 2016 720p BluRay x264 DD5 1-FGT

seeders: 243
leechers: 158
Robinson Crusoe 2016 720p BluRay x264 DD5 1-FGT magnet link

Info Hash: F5BA3144093AACBC1D554A41E76F08B04D8124AB
Robinson Crusoe 2016 720p BluRay x264 DD5 1-FGT
  • Downloads 1,362
  • Added 7 months
  • Quality Good
  • Torrent ID 510800
  • Note if .torrent file deleted click magnet below
  • Download Magnet
Torrent Info:
• You can easily download Robinson Crusoe 2016 720p BluRay x264 DD5 1-FGT Torerent to your PC, MAC, Tablet, Mobile or any other devices.
• HD Quality Torrent Robinson Crusoe 2016 720p BluRay x264 DD5 1-FGT
• Your Support Keep WatchTorrentMovie.Us alive.

Torrent Files

Robinson Crusoe 2016 720p BluRay x264 DD5 1-FGT (Size: 3.67 GB)
  Robinson Crusoe 2016 720p BluRay x264 DD5 1-FGT 3.67 GB

Torrent Description



Robinson.Crusoe.2016.720p.BluRay.x264.DD5.1-FGT

http://imdb.com/title/tt4731008/

Category: Movies/x264/720
Size: 3.67 GB
Title: The Wild Life (2016)

Genres: Animation , Adventure , Comedy
Actors: Ron Allen , George Babbit , Laila Berzins , Ilka Bessin , Joey Camen , Jeff Doucette , Sandy Fox , Dieter Hallervorden , Kyle Herbert ,
Marieve Herington , David Howard , Jay Jones , Lex Lang , Yuri Lowenthal
Director: Vincent Kesteloot , Ben Stassen
Runtime: 90
Year: 2016

Plot: On a tiny exotic island| Tuesday| an outgoing parrot lives with his quirky animal friends in paradise. However| Tuesday can't stop dreaming about discovering the
world. After a violent storm| Tuesday and his friends wake up to find a strange creature on the beach: Robinson Crusoe. Tuesday immediately views Crusoe as his
ticket off the island to explore new lands. Likewise| Crusoe soon realizes that the key to surviving on the island is through the help of Tuesday and the other
animals. It isn't always easy at first| as the animals don't speak "human." Slowly but surely| they all start living together in harmony| until one day| when their
comfortable life is overturned by two savage cats| who wish to take control of the island. A battle ensues between the cats and the group of friends but Crusoe and
the animals soon discover the true power of friendship up against all odds (even savage cats).








Quote:

Video
ID : 1
Format : AVC
Format/Info : Advanced Video Codec
Format profile : [email protected]
Format settings, CABAC : Yes
Format settings, ReFrames : 4 frames
Codec ID : V_MPEG4/ISO/AVC
Duration : 1h 30mn
Bit rate : 5 500 Kbps
Width : 1 280 pixels
Height : 534 pixels
Display aspect ratio : 2.40:1
Original display aspect ratio : 2.40:1
Frame rate mode : Constant
Frame rate : 23.976 (24000/1001) fps
Color space : YUV
Chroma subsampling : 4:2:0
Bit depth : 8 bits
Scan type : Progressive
Bits/(Pixel*Frame) : 0.336
Stream size : 3.31 GiB (90%)
Title : Robinson.Crusoe.2016.720p.BluRay.x264.DD5.1-FGT
Writing library : x264 core 148 r2694 3b70645
Encoding settings : cabac=1 / ref=4 / deblock=1:1:1 / analyse=0x3:0x113 / me=umh / subme=8 / psy=1 / psy_rd=0.40:0.00 / mixed_ref=1 / me_range=16 / chroma_me=1 / trellis=1 / 8x8dct=1 / cqm=0 / deadzone=21,11 / fast_pskip=1 / chroma_qp_offset=-2 / threads=40 / lookahead_threads=4 / sliced_threads=0 / nr=0 / decimate=1 / interlaced=0 / bluray_compat=0 / constrained_intra=0 / bframes=5 / b_pyramid=2 / b_adapt=2 / b_bias=0 / direct=3 / weightb=1 / open_gop=0 / weightp=2 / keyint=250 / keyint_min=23 / scenecut=40 / intra_refresh=0 / rc_lookahead=50 / rc=abr / mbtree=1 / bitrate=5500 / ratetol=1.0 / qcomp=0.60 / qpmin=0 / qpmax=69 / qpstep=4 / ip_ratio=1.40 / aq=1:0.60
Language : English
Default : Yes
Forced : No

Audio
ID : 2
Format : AC-3
Format/Info : Audio Coding 3
Mode extension : CM (complete main)
Format settings, Endianness : Big
Codec ID : A_AC3
Duration : 1h 30mn
Bit rate mode : Constant
Bit rate : 448 Kbps
Channel(s) : 6 channels
Channel positions : Front: L C R, Side: L R, LFE
Sampling rate : 48.0 KHz
Frame rate : 31.250 fps (1536 spf)
Compression mode : Lossy
Stream size : 290 MiB (8%)
Title : Robinson.Crusoe.2016.720p.BluRay.x264.DD5.1-FGT
Language : English
Default : Yes
Forced : No

Menu
00:00:00.000 : en:Chapter 01
00:11:40.324 : en:Chapter 02
00:24:47.027 : en:Chapter 03
00:35:02.266 : en:Chapter 04
00:44:30.125 : en:Chapter 05
00:54:34.145 : en:Chapter 06
01:04:27.280 : en:Chapter 07
01:15:12.883 : en:Chapter 08
01:25:14.776 : en:Chapter 09 


 

( Tags )





People also Search for: Robinson Crusoe 2016 720p BluRay x264 DD5 1-FGT

  • • 1080p Robinson Crusoe 2016 720p BluRay x264 DD5 1-FGT Torrent
  • • 720p Robinson Crusoe 2016 720p BluRay x264 DD5 1-FGT DVDRip
  • • HD Robinson Crusoe 2016 720p BluRay x264 DD5 1-FGT
  • • Dvix/Xvid Robinson Crusoe 2016 720p BluRay x264 DD5 1-FGT
  • • Blu-ray Robinson Crusoe 2016 720p BluRay x264 DD5 1-FGT

Recently Added Torrents

torrent name size age seed leech
2.3 GB 18 minutes 614 423
651.2 MB 18 minutes 651 462
5.21 GB 18 minutes 638 354
2.54 GB 18 minutes 194 6
1.1 GB 18 minutes 744 139